Король джаза / King of Jazz (1930) BDRemux 1080р | Sub скачать торрент

Вы посетили страницу нашего torrent трекера и теперь имеете возможность скачать бесплатно через торрент Король джаза / King of Jazz (1930) BDRemux 1080р | Sub в хорошем качестве. Только лучшие релизы, на свободном torrent трекере.

Все раздачи мультитрекерные, даже при нуле сидов, можно качать на максимальной скорости. Скорость скачивания без ограничений !!!

DL-List and Torrent activity [Update пиров]
Size:  25.34 GB   |    Registered:  4 days   |    Completed:  0 times

Seeder not seen: Never

 
   
 
 
 

briqada ®

Gender:
Unknown
Longevity:
2 years 9 months
Posts:
3091


Информация о фильме
Название: Король джаза
Оригинальное название: King of Jazz
Год выхода: 1930
Жанр: музыка, крмедия
Режиссер: Джон Мюррэй Андерсон
В ролях: Пол Уайтмен, Джон Боулс, Лаура Ла Планте, Джинетт Лофф, Гленн Трайон, Уильям Кент, Слим Саммервилл, Кэтрин Кроуфорд
Описание: «Король джаза» - американский цветной музыкальный фильм 1930 года, в главной роли выступает Пол Уайтмэн и его оркестр.
Фильм провозгласил новую эру в звуковом и цветном развлекательном кинематографе, создав богатую насыщенную палитру мелодичных звуков и фантастического смешения красок.
Этот фильм - гимн американской популярной музыки под названием джаз. Жанр фильма - музыкальное ревю, в котором чередуются музыкальные номера, короткие комедийные эскизы-скетчи и два анимационных фрагмента. Все вместе они представлены в виде отдельных страниц, объединённых в альбом Пола Уайтмэна.

Страна: США
Продолжительность: 01:40:23
Перевод: Субтитры
Субтитры: Русские (Сергей Квардаков (ССК+)), английские
Оригинальная аудиодорожка: Английская
Файл
Качество: BDRemux 1080р
Видео: MPEG-4 AVC, 1920x1080 (1.35:1), 23.976 fps, 35675 kbps
Аудио 1: Английский DTS-HD MA 1.0, 48 kHz, 1024 kbps, 24-bit (DTS Core: 1.0, 48 kHz, 768 kbps, 24-bit)
Аудио 2: Английский AC3 1.0, 48 kHz, 192 kbps — Commentary

Скриншоты

MediaInfo

General
Unique ID : 71109217572556849901906723074102438031 (0x357F231BE6CA18425EBFCFCAB51AA88F)
Complete name : King.of.Jazz.1930.1080p.BDRemux.mkv
Format : Matroska
Format version : Version 2
File size : 25.3 GiB
Duration : 1 h 40 min
Overall bit rate mode : Variable
Overall bit rate : 36.1 Mb/s
Movie name : King of Jazz / Король джаза (1930)
Encoded date : UTC 2018-12-21 21:22:11
Writing application : mkvmerge v29.0.0 (#039;Like It Or Not#039;) 64-bit
Writing library : libebml v1.3.6 + libmatroska v1.4.9
Cover : Yes
Attachments : cover.jpg
Video
ID : 1
Format : AVC
Format/Info : Advanced Video Codec
Format profile : [email protected]
Format settings : CABAC / 4 Ref Frames
Format settings, CABAC : Yes
Format settings, RefFrames : 4 frames
Codec ID : V_MPEG4/ISO/AVC
Duration : 1 h 40 min
Bit rate mode : Variable
Bit rate : 34.9 Mb/s
Maximum bit rate : 37.0 Mb/s
Width : 1 920 pixels
Height : 1 080 pixels
Display aspect ratio : 16:9
Frame rate mode : Constant
Frame rate : 23.976 (24000/1001) FPS
Color space : YUV
Chroma subsampling : 4:2:0
Bit depth : 8 bits
Scan type : Progressive
Bits/(Pixel*Frame) : 0.702
Stream size : 24.5 GiB (97%)
Language : English
Default : Yes
Forced : No
Audio #1
ID : 2
Format : DTS
Format/Info : Digital Theater Systems
Format profile : MA / Core
Codec ID : A_DTS
Duration : 1 h 40 min
Bit rate mode : Variable / Constant
Bit rate : 1 024 kb/s / 768 kb/s
Channel(s) : 1 channel
Channel positions : Front: C
Sampling rate : 48.0 kHz
Frame rate : 93.750 FPS (512 SPF)
Bit depth : 24 bits
Compression mode : Lossless / Lossy
Stream size : 743 MiB (3%)
Language : English
Default : Yes
Forced : No
Audio #2
ID : 3
Format : AC-3
Format/Info : Audio Coding 3
Codec ID : A_AC3
Duration : 1 h 40 min
Bit rate mode : Constant
Bit rate : 192 kb/s
Channel(s) : 1 channel
Channel positions : Front: C
Sampling rate : 48.0 kHz
Frame rate : 31.250 FPS (1536 SPF)
Bit depth : 16 bits
Compression mode : Lossy
Stream size : 138 MiB (1%)
Title : Commentary with Gary Giddins, Gene Seymour Vince Giordano
Language : English
Service kind : Complete Main
Default : No
Forced : No
Text #1
ID : 4
Format : UTF-8
Codec ID : S_TEXT/UTF8
Codec ID/Info : UTF-8 Plain Text
Duration : 1 h 38 min
Bit rate : 59 b/s
Count of elements : 781
Stream size : 43.0 KiB (0%)
Title : ССК+
Language : Russian
Default : Yes
Forced : No
Text #2
ID : 5
Format : UTF-8
Codec ID : S_TEXT/UTF8
Codec ID/Info : UTF-8 Plain Text
Duration : 1 h 37 min
Bit rate : 40 b/s
Count of elements : 762
Stream size : 28.7 KiB (0%)
Language : English
Default : No
Forced : No
Text #3
ID : 6
Format : UTF-8
Codec ID : S_TEXT/UTF8
Codec ID/Info : UTF-8 Plain Text
Duration : 1 h 39 min
Bit rate : 43 b/s
Count of elements : 885
Stream size : 32.1 KiB (0%)
Title : SDH
Language : English
Default : No
Forced : No
Menu
00:00:00.000 : en:01. Paul Whiteman’s scrapbook
00:02:41.745 : en:02. “A Fable in Jazz”
00:05:21.029 : en:03. “Meet the Boys”
00:10:34.801 : en:04. “Meet the Girls”
00:12:35.880 : en:05. “My Bridal Veil”
00:20:46.912 : en:06. “I’d Like to Do Things for You”
00:25:28.902 : en:07. “Ladies of the Press”
00:26:20.746 : en:08. “The Rhythm Boys”
00:29:06.828 : en:09. “Monterey”
00:35:16.489 : en:10. “In Conference”
00:35:59.157 : en:11. “The Property Man”
00:40:00.023 : en:12. “A Bench in the Park”
00:46:30.871 : en:13. “Springtime”
00:46:51.058 : en:14. “All Noisy on the Eastern Front”
00:48:33.702 : en:15. “Willie Hall, One of the Whiteman Boys”
00:51:38.512 : en:16. “Rhapsody in Blue”
01:01:24.848 : en:17. “Oh! Forevermore!”
01:05:09.739 : en:18. “My Ragamuffin Romeo”
01:10:21.217 : en:19. “A Dash of Spice”
01:11:37.293 : en:20. “Happy Feet”
01:17:54.503 : en:21. “Has Anybody Seen Our Nellie?”
01:21:21.085 : en:22. “The Song of the Dawn”
01:24:57.718 : en:23. “The Melting Pot of Music”
01:38:48.297 : en:24. Exit music

[fromtorrents.com].t68503.torrent 
Torrent: Registered [ 2019-10-09 22:00 ] · 3EB286AF43DA672856F1F5C3B2A9369924FD25EF

Download .torrent

33 KB

Status: checked
Completed: 0 times
Size: 25.34 GB
Rate: 
(Vote: 0)
Have thanked: 0  Thanks

Скачать через торрент Король джаза / King of Jazz (1930) BDRemux 1080р | Sub в хорошем качестве бесплатно


terms.php
Display posts:    

Current time is: 14-Oct 02:19

All times are UTC + 4



You cannot post new topics in this forum
You cannot reply to topics in this forum
You cannot edit your posts in this forum
You cannot delete your posts in this forum
You cannot vote in polls in this forum
You cannot attach files in this forum
You can download files in this forum

Скачать через торрент фильмы 4K Ultra HD 2160p бесплатно, на первом свободном torrent трекере без надоедливой рекламы. Качаем без ограничений, рейтингов и прочих трудностей. Ищите любимый сериал, у нас вы найдёте множество сериалов, фильмов, игр, музыки. Скачать торрентом не составит труда даже не опытному пользователю. Все торрент файлы доступны к скачиванию любому пользователю бесплатно. Переходи на freetorrent и качай по полной без регистрации и ограничений. И не забудьте поделиться ссылкой на наш сайт - мы будем очень благодарны. Это даёт нам сил и заряда для жизни проекта.

Ежедневно в мир выходит столько новых картин, что уследить за всеми просто не представляется возможным. На нашем крупнейшем русскоязычном торрент трекере вы сможете без труда скачать фильмы 4к через торрент бесплатно новинки фильмов, не проходя утомительную регистрацию с подтверждением в смс, без назойливой рекламы и перехода по подозрительным ссылкам, все желаемые файлы находятся в открытом доступе и доступны к загрузке без начисления рейтинга. Скачать новинки выгодно не только в финансовом плане, любую загруженную киноленту можно посмотреть в удобное время и в высоком качестве. Самая лучшая подборка кино фильмов 60 fps | UHD 2160p | 4K утолит желание каждого киномана, каталог постоянно пополняется только лучшими релизами. У нас представлена огромная коллекция как недавно вышедших новинок, так и давно полюбившихся бестселлеров. Для того, чтобы получить файл, вам стоит лишь перейти на вкладку искомого материала и скачать нужный торрент и подождать, пока программа перенесет полнометражную картину на компьютер. Главная страница послужит путеводителем и афишей, где можно за несколько минут найти необходимое. Первый русский свободный торрент сделан с максимальным комфортом для пользователя, не нужно тратить время на изучение интерфейса. Желаем вам приятного просмотра! Постоянное обновление и пополнение - новинками популярных игр, новый и безопасный софт, мультимедиа кпк Свободный торрент трекер.