Человек-паук: Вдали от дома / Spider-Man: Far from Home (2019) WEB-DL 720p | P скачать торрент

Вы посетили страницу нашего torrent трекера и теперь имеете возможность скачать бесплатно через торрент Человек-паук: Вдали от дома / Spider-Man: Far from Home (2019) WEB-DL 720p | P в хорошем качестве. Только лучшие релизы, на свободном torrent трекере.

Все раздачи мультитрекерные, даже при нуле сидов, можно качать на максимальной скорости. Скорость скачивания без ограничений !!!

DL-List and Torrent activity [Update пиров]
Size:  4.19 GB   |    Registered:  26 days   |    Completed:  7 times
Seeders:  12  [  0 KB/s  ]   Leechers:  2  [  0 KB/s  ]   Show peers in full details
 
   
 
 

rico ®

Gender:
Male
Longevity:
3 years 1 month
Posts:
4988


Информация о фильме
Название: Человек-паук: Вдали от дома
Оригинальное название: Spider-Man: Far from Home
Год выхода: 2019
Жанр: Фантастика, боевик, приключения
Режиссер: Джон Уоттс
В ролях: Том Холланд (II), Зендая Колеман, Энгаури Райс, Джон Фавро, Джейк Джилленхол, Сэмюэл Л. Джексон, Коби Смолдерс, Мариса Томей, Мартин Старр, Нуман Аджар, Джейкоб Баталон, Тони Револори
О фильме:
Питер Паркер вместе с друзьями отправляется на летние каникулы в Европу. Однако отдохнуть приятелям вряд ли удастся - Питеру придется согласиться помочь Нику Фьюри раскрыть тайну существ, вызывающих стихийные бедствия и разрушения по всему континенту.

Страна: США
Студия: Columbia Pictures, Marvel Studios, Pascal Pictures
Продолжительность: 02:09:22
Перевод: Профессиональный многоголосый |
Файл
Кодек: x.264
Качество: WEB-DL 720p | AMZN
Видео: MPEG-4 AVC, 3801 Kбит/с, 1248x520, 23.976 кадр/с
Звук: ► Без Рекламы!
Аудио #1: Русский (АС3, 2 ch, 192 Кбит/с, 48.0 KHz) Профессиональный (многоголосый, закадровый)
Аудио #2: Английский (E-АС3, 6 ch, 640 Кбит/с, 48.0 KHz)
Субтитры: Английские

MediaInfo

Источник: Spider-Man.Far.from.Home.2019.720p.AMZN.WEB-DL.DDP5.1.H.264-NTG
General
Unique ID : 189353253712849456605151179528426963365 (0x8E741C32165FACE79522C9957E8741A5)
Complete name : Spider.Man.Far.from.Home.2019.AMZN.WEB-DL.720p.mkv
Format : Matroska
Format version : Version 4
File size : 4.19 GiB
Duration : 2 h 9 min
Overall bit rate : 4 636 kb/s
Encoded date : UTC 2019-09-17 10:07:33
Writing application : mkvmerge v7.1.0 (#039;Good Love#039;) 64bit built on Jul 27 2014 13:06:55
Writing library : libebml v1.3.0 + libmatroska v1.4.1
Video
ID : 1
Format : AVC
Format/Info : Advanced Video Codec
Format profile : [email protected]
Format settings : CABAC / 4 Ref Frames
Format settings, CABAC : Yes
Format settings, Reference fra : 4 frames
Codec ID : V_MPEG4/ISO/AVC
Duration : 2 h 9 min
Bit rate mode : Constant
Bit rate : 3 801 kb/s
Nominal bit rate : 6 000 kb/s
Width : 1 248 pixels
Height : 520 pixels
Display aspect ratio : 2.40:1
Frame rate mode : Constant
Frame rate : 23.976 (24000/1001) FPS
Color space : YUV
Chroma subsampling : 4:2:0
Bit depth : 8 bits
Scan type : Progressive
Bits/(Pixel*Frame) : 0.244
Stream size : 3.43 GiB (82%)
Default : Yes
Forced : No
Color range : Limited
Color primaries : BT.709
Transfer characteristics : BT.709
Matrix coefficients : BT.709
Audio #1
ID : 2
Format : AC-3
Format/Info : Audio Coding 3
Commercial name : Dolby Digital
Codec ID : A_AC3
Duration : 2 h 9 min
Bit rate mode : Constant
Bit rate : 192 kb/s
Channel(s) : 2 channels
Channel layout : L R
Sampling rate : 48.0 kHz
Frame rate : 31.250 FPS (1536 SPF)
Bit depth : 16 bits
Compression mode : Lossy
Stream size : 178 MiB (4%)
Title : MVO |
Language : Russian
Service kind : Complete Main
Default : Yes
Forced : No
Audio #2
ID : 3
Format : E-AC-3
Format/Info : Enhanced AC-3
Commercial name : Dolby Digital Plus
Codec ID : A_EAC3
Duration : 2 h 9 min
Bit rate mode : Constant
Bit rate : 640 kb/s
Channel(s) : 6 channels
Channel layout : L R C LFE Ls Rs
Sampling rate : 48.0 kHz
Frame rate : 31.250 FPS (1536 SPF)
Compression mode : Lossy
Stream size : 592 MiB (14%)
Language : English
Service kind : Complete Main
Default : No
Forced : No
Text #1
ID : 4
Format : UTF-8
Codec ID : S_TEXT/UTF8
Codec ID/Info : UTF-8 Plain Text
Duration : 2 h 7 min
Bit rate : 65 b/s
Count of elements : 2073
Stream size : 61.4 KiB (0%)
Language : English
Default : No
Forced : No
Text #2
ID : 5
Format : UTF-8
Codec ID : S_TEXT/UTF8
Codec ID/Info : UTF-8 Plain Text
Duration : 2 h 8 min
Bit rate : 70 b/s
Count of elements : 2418
Stream size : 66.1 KiB (0%)
Title : SDH
Language : English
Default : No
Forced : No
Menu
00:00:00.000 : en:Studio Logo
00:00:33.000 : en:A mysterious cyclone
00:01:47.000 : en:Title Sequence
00:02:24.000 : en:Moving on after The Blip
00:04:11.000 : en:Peter has a plan to woo MJ
00:05:53.000 : en:A benefit for the homeless
00:08:37.000 : en:Big shoes to fill
00:09:34.000 : en:Peter needs a vacation
00:14:51.000 : en:Arriving in Venice
00:18:20.000 : en:Peter finds the perfect gift for MJ
00:19:33.000 : en:A surprise attack on Venice
00:25:18.000 : en:An unexpected visitor
00:30:35.000 : en:The myths of Elementals
00:34:23.000 : en:A hijacked summer vacation
00:39:26.000 : en:A powerful gift from Tony
00:41:56.000 : en:Danger in Prague
00:49:49.000 : en:Fighting the fire Elemental
00:57:09.000 : en:The truth about Quentin Beck
01:04:50.000 : en:Taking advantage of their last night in the city
01:10:30.000 : en:Mysterio puts his plan into action
01:13:42.000 : en:Peter heads to Berlin to warn Fury
01:17:50.000 : en:The power of illusions
01:22:48.000 : en:Peter wakes up in the Netherlands
01:25:39.000 : en:Happy offers Peter some advice
01:29:24.000 : en:Everything converges in London
01:35:08.000 : en:Fighting the illusion from the inside
01:43:34.000 : en:The power of the Peter-tingle
01:49:01.000 : en:Nothing goes according to plan
01:52:16.000 : en:Arriving back home
01:55:33.000 : en:End Credits
01:57:41.000 : en:Title Sequence
01:57:45.000 : en:BONUS: End Credit Scene 1
01:59:23.000 : en:End Credits
02:07:17.000 : en:BONUS: End Credit Scene 2
02:08:56.000 : en:Acknowledgement

Скриншоты


[fromtorrents.com].t67844.torrent 
Torrent: Registered [ 2019-09-17 17:30 ] · EAB9FA63A2EBA213FDC2EFB9CD798EC03EE4701B

Download .torrent

11 KB

Status: checked
Completed: 7 times
Size: 4.19 GB
Rate: 
(Vote: 0)
Have thanked: 0  Thanks

Скачать через торрент Человек-паук: Вдали от дома / Spider-Man: Far from Home (2019) WEB-DL 720p | P в хорошем качестве бесплатно


terms.php
Display posts:    

Current time is: 14-Oct 02:58

All times are UTC + 4



You cannot post new topics in this forum
You cannot reply to topics in this forum
You cannot edit your posts in this forum
You cannot delete your posts in this forum
You cannot vote in polls in this forum
You cannot attach files in this forum
You can download files in this forum

Скачать через торрент фильмы 4K Ultra HD 2160p бесплатно, на первом свободном torrent трекере без надоедливой рекламы. Качаем без ограничений, рейтингов и прочих трудностей. Ищите любимый сериал, у нас вы найдёте множество сериалов, фильмов, игр, музыки. Скачать торрентом не составит труда даже не опытному пользователю. Все торрент файлы доступны к скачиванию любому пользователю бесплатно. Переходи на freetorrent и качай по полной без регистрации и ограничений. И не забудьте поделиться ссылкой на наш сайт - мы будем очень благодарны. Это даёт нам сил и заряда для жизни проекта.

Ежедневно в мир выходит столько новых картин, что уследить за всеми просто не представляется возможным. На нашем крупнейшем русскоязычном торрент трекере вы сможете без труда скачать фильмы 4к через торрент бесплатно новинки фильмов, не проходя утомительную регистрацию с подтверждением в смс, без назойливой рекламы и перехода по подозрительным ссылкам, все желаемые файлы находятся в открытом доступе и доступны к загрузке без начисления рейтинга. Скачать новинки выгодно не только в финансовом плане, любую загруженную киноленту можно посмотреть в удобное время и в высоком качестве. Самая лучшая подборка кино фильмов 60 fps | UHD 2160p | 4K утолит желание каждого киномана, каталог постоянно пополняется только лучшими релизами. У нас представлена огромная коллекция как недавно вышедших новинок, так и давно полюбившихся бестселлеров. Для того, чтобы получить файл, вам стоит лишь перейти на вкладку искомого материала и скачать нужный торрент и подождать, пока программа перенесет полнометражную картину на компьютер. Главная страница послужит путеводителем и афишей, где можно за несколько минут найти необходимое. Первый русский свободный торрент сделан с максимальным комфортом для пользователя, не нужно тратить время на изучение интерфейса. Желаем вам приятного просмотра! Постоянное обновление и пополнение - новинками популярных игр, новый и безопасный софт, мультимедиа кпк Свободный торрент трекер.