Ван Хельсинг / Van Helsing (2004) WEB-DL 1080p | Open Matte | D, P, P2 скачать торрент

Вы посетили страницу нашего torrent трекера и теперь имеете возможность скачать бесплатно через торрент Ван Хельсинг / Van Helsing (2004) WEB-DL 1080p | Open Matte | D, P, P2 в хорошем качестве. Только лучшие релизы, на свободном torrent трекере.

Все раздачи мультитрекерные, даже при нуле сидов, можно качать на максимальной скорости. Скорость скачивания без ограничений !!!

DL-List and Torrent activity [Update пиров]
Size:  11.6 GB   |    Registered:  6 days   |    Completed:  7 times

Seeder not seen: 4 days

 
   
 
 
 

rico ®

Gender:
Male
Longevity:
3 years
Posts:
4877


Информация о фильме
Название: Ван Хельсинг
Оригинальное название: Van Helsing
Год выхода: 2004
Жанр: Фэнтези, боевик, триллер, детектив, приключения
Режиссер: Стивен Соммерс
В ролях: Хью Джекман, Кейт Бекинсейл, Ричард Роксбург, Дэвид Уэнэм, Шулер Хенсли, Елена Анайя, Уилл Кемп, Кевин Дж. О’Коннор, Алан Армстронг, Сильвия Коллока, Джози Мэран, Том Фишер, Сэмьюэл Уэст, Робби Колтрейн, Стивен Фишер, Дэна Маравкова, Зузана Дурдинова, Ярослав Визнер, Марек Вашут, Саманта Соммерс, Дорел Моис, Марианна Моис, Лоуренс Расин, Патрис Войцеховский, Каси Борроумэн, Райан Джеймс, Мартин Клеббэ, Эллисон Квил
О фильме:
Глубоко в Карпатах лежит таинственная страна Трансильвания — мир, в котором зло встречается на каждом шагу, мир, в котором опасность оживает с заходом солнца, и где монстры, живущие в глубине человеческих кошмаров, обретают форму. В этот мир попадает легендарный охотник на чудовищ Ван Хельсинг, рождённый на страницах романа «Дракула» Брэма Стокера. В своей непрерывной битве против сил зла и за освобождение мира от порождений ада, Ван Хельсинг, по заданию секретного общества, отправляется в Трансильванию, чтобы скрестить оружие со смертельно опасным, наделённым неведомой силой графом Дракулой. На помощь ему внезапно приходит бесстрашная Анна Валери, поставившая целью избавить свою семью от векового проклятья, наложенного убитым вампиром.

Страна: США, Чехия
Студия: Carpathian Pictures, Stillking Films, The Sommers Company, Universal Pictures
Продолжительность: 02:11:40
Перевод: Дублированный, Многоголосый закадровый, Двухголосый закадровый
Файл
Формат: Matroska
Качество: WEB-DL 1080p | Open Matte
Видео: 1920x1080, 23.976, x264, ~10800 kbps
Звук:
AC3, 6 ch, 448 kbps (Дубляж, R5 quot;Мосфильм Мастерquot;)
AC3, 2 ch, 384 kbps (Дубляж, quot;АРТ ТВquot;)
AC3, 6 ch, 384 kbps (Многоголосый)
AC3, 6 ch, 448 kbps (Двухголосый, Tycoon Studio)
AC3, 2 ch, 192 kbps (Двухголосый, РЕН ТВ)
Субтитры: русские, английские

MediaInfo

Формат : Matroska
Версия формата : Version 4
Размер файла : 11,6 Гбайт
Продолжительность : 2 ч. 11 м.
Общий поток : 12,6 Мбит/сек
Видео
Идентификатор : 1
Формат : AVC
Формат/Информация : Advanced Video Codec
Профиль формата : [email protected]
Настройки формата : CABAC / 4 Ref Frames
Параметр CABAC формата : Да
Параметр RefFrames формата : 4 кадра
Идентификатор кодека : V_MPEG4/ISO/AVC
Продолжительность : 2 ч. 11 м.
Битрейт : 10,8 Мбит/сек
Ширина : 1920 пикселей
Высота : 1080 пикселей
Соотношение сторон : 16:9
Режим частоты кадров : Постоянный
Частота кадров : 23,976 (23976/1000) кадра/сек
Частота кадров в оригинале : 23,976 (24000/1001) кадра/сек
Цветовое пространство : YUV
Субдискретизация насыщенности : 4:2:0
Битовая глубина : 8 бит
Тип развёртки : Прогрессивная
Бит/(Пиксели*Кадры) : 0.216
Размер потока : 9,89 Гбайт (85%)
Заголовок : Ван Хельсинг (2004) WEB-DL 1080p Open Matte
Язык : English
Default : Да
Forced : Нет
Цветовой диапазон : Limited
Основные цвета : BT.709
Характеристики трансфера : BT.709
Коэффициенты матрицы : BT.709
Аудио #1
Идентификатор : 2
Формат : AC-3
Формат/Информация : Audio Coding 3
Идентификатор кодека : A_AC3
Продолжительность : 2 ч. 11 м.
Вид битрейта : Постоянный
Битрейт : 448 Кбит/сек
Каналы : 6 каналов
ChannelLayout : L R C LFE Ls Rs
Частота : 48,0 КГц
Частота кадров : 31,250 кадров/сек (1536 SPF)
Битовая глубина : 16 бит
Метод сжатия : С потерями
Размер потока : 422 Мбайт (4%)
Заголовок : Дубляж, R5 quot;Мосфильм Мастерquot;
Язык : Russian
Default : Да
Forced : Да
Аудио #2
Идентификатор : 3
Формат : AC-3
Формат/Информация : Audio Coding 3
Коммерческое название : Dolby Digital
Идентификатор кодека : A_AC3
Продолжительность : 2 ч. 11 м.
Вид битрейта : Постоянный
Битрейт : 384 Кбит/сек
Каналы : 2 канала
ChannelLayout : L R
Частота : 48,0 КГц
Частота кадров : 31,250 кадров/сек (1536 SPF)
Битовая глубина : 16 бит
Метод сжатия : С потерями
Размер потока : 362 Мбайт (3%)
Заголовок : Дубляж, quot;АРТ ТВquot;
Язык : Russian
Default : Нет
Forced : Нет
Аудио #3
Идентификатор : 4
Формат : AC-3
Формат/Информация : Audio Coding 3
Коммерческое название : Dolby Digital
Идентификатор кодека : A_AC3
Продолжительность : 2 ч. 11 м.
Вид битрейта : Постоянный
Битрейт : 384 Кбит/сек
Каналы : 6 каналов
ChannelLayout : L R C LFE Ls Rs
Частота : 48,0 КГц
Частота кадров : 31,250 кадров/сек (1536 SPF)
Битовая глубина : 16 бит
Метод сжатия : С потерями
Размер потока : 362 Мбайт (3%)
Заголовок : Многоголосый
Язык : Russian
Default : Нет
Forced : Нет
Аудио #4
Идентификатор : 5
Формат : AC-3
Формат/Информация : Audio Coding 3
Коммерческое название : Dolby Digital
Идентификатор кодека : A_AC3
Продолжительность : 2 ч. 11 м.
Вид битрейта : Постоянный
Битрейт : 448 Кбит/сек
Каналы : 6 каналов
ChannelLayout : L R C LFE Ls Rs
Частота : 48,0 КГц
Частота кадров : 31,250 кадров/сек (1536 SPF)
Битовая глубина : 16 бит
Метод сжатия : С потерями
Размер потока : 422 Мбайт (4%)
Заголовок : Двухголосый, Tycoon Studio
Язык : Russian
Default : Нет
Forced : Нет
Аудио #5
Идентификатор : 6
Формат : AC-3
Формат/Информация : Audio Coding 3
Коммерческое название : Dolby Digital
Идентификатор кодека : A_AC3
Продолжительность : 2 ч. 11 м.
Вид битрейта : Постоянный
Битрейт : 192 Кбит/сек
Каналы : 2 канала
ChannelLayout : L R
Частота : 48,0 КГц
Частота кадров : 31,250 кадров/сек (1536 SPF)
Битовая глубина : 16 бит
Метод сжатия : С потерями
Размер потока : 181 Мбайт (2%)
Заголовок : Двухголосый, РЕН ТВ
Язык : Russian
Default : Нет
Forced : Нет
Текст #1
Идентификатор : 7
Формат : UTF-8
Идентификатор кодека : S_TEXT/UTF8
Идентификатор кодека/Информация : UTF-8 Plain Text
Продолжительность : 2 ч. 3 м.
Битрейт : 0 бит/сек
ElementCount : 11
Размер потока : 463 байт (0%)
Заголовок : Russian Forced
Язык : Russian
Default : Да
Forced : Да
Текст #2
Идентификатор : 8
Формат : UTF-8
Идентификатор кодека : S_TEXT/UTF8
Идентификатор кодека/Информация : UTF-8 Plain Text
Продолжительность : 2 ч. 2 м.
Битрейт : 52 бит/сек
ElementCount : 846
Размер потока : 47,6 Кбайт (0%)
Заголовок : Russian Full
Язык : Russian
Default : Нет
Forced : Нет
Текст #3
Идентификатор : 9
Формат : UTF-8
Идентификатор кодека : S_TEXT/UTF8
Идентификатор кодека/Информация : UTF-8 Plain Text
Продолжительность : 2 ч. 4 м.
Битрейт : 57 бит/сек
ElementCount : 900
Размер потока : 52,5 Кбайт (0%)
Заголовок : Russian Full - Ганс
Язык : Russian
Default : Нет
Forced : Нет
Текст #4
Идентификатор : 10
Формат : UTF-8
Идентификатор кодека : S_TEXT/UTF8
Идентификатор кодека/Информация : UTF-8 Plain Text
Продолжительность : 1 ч. 58 м.
Битрейт : 0 бит/сек
ElementCount : 8
Размер потока : 286 байт (0%)
Заголовок : English Forced
Язык : English
Default : Нет
Forced : Нет
Текст #5
Идентификатор : 11
Формат : UTF-8
Идентификатор кодека : S_TEXT/UTF8
Идентификатор кодека/Информация : UTF-8 Plain Text
Продолжительность : 1 ч. 58 м.
Битрейт : 34 бит/сек
ElementCount : 1038
Размер потока : 30,2 Кбайт (0%)
Заголовок : English Full
Язык : English
Default : Нет
Forced : Нет
Текст #6
Идентификатор : 12
Формат : UTF-8
Идентификатор кодека : S_TEXT/UTF8
Идентификатор кодека/Информация : UTF-8 Plain Text
Продолжительность : 1 ч. 58 м.
Битрейт : 42 бит/сек
ElementCount : 1157
Размер потока : 36,9 Кбайт (0%)
Заголовок : English Full SDH v1
Язык : English
Default : Нет
Forced : Нет
Текст #7
Идентификатор : 13
Формат : UTF-8
Идентификатор кодека : S_TEXT/UTF8
Идентификатор кодека/Информация : UTF-8 Plain Text
Продолжительность : 2 ч. 1 м.
Битрейт : 42 бит/сек
ElementCount : 1204
Размер потока : 38,0 Кбайт (0%)
Заголовок : English Full SDH v2
Язык : English
Default : Нет
Forced : Нет
Текст #8
Идентификатор : 14
Формат : UTF-8
Идентификатор кодека : S_TEXT/UTF8
Идентификатор кодека/Информация : UTF-8 Plain Text
Продолжительность : 2 ч. 1 м.
Битрейт : 41 бит/сек
ElementCount : 1286
Размер потока : 36,9 Кбайт (0%)
Заголовок : English Full SDH - Amazon
Язык : English
Default : Нет
Forced : Нет
Меню
00:00:00.000 : :Глава 1
00:07:42.045 : :Глава 2
00:17:12.490 : :Глава 3
00:31:13.372 : :Глава 4
00:46:27.159 : :Глава 5
01:02:40.452 : :Глава 6
01:18:51.547 : :Глава 7
01:33:25.671 : :Глава 8
01:48:17.520 : :Глава 9
02:02:02.120 : :Глава 10

Скриншоты



BD vs WEB-DL


[fromtorrents.com].t67562.torrent 
Torrent: Registered [ 2019-09-11 13:30 ] · B9B906AE6FC08B8B1FFD5DB93449CABC877B7110

Download .torrent

30 KB

Status: checked
Completed: 7 times
Size: 11.6 GB
Rate: 
(Vote: 0)
Have thanked: 0  Thanks

Скачать через торрент Ван Хельсинг / Van Helsing (2004) WEB-DL 1080p | Open Matte | D, P, P2 в хорошем качестве бесплатно


terms.php
Display posts:    

Current time is: 18-Sep 04:46

All times are UTC + 4



You cannot post new topics in this forum
You cannot reply to topics in this forum
You cannot edit your posts in this forum
You cannot delete your posts in this forum
You cannot vote in polls in this forum
You cannot attach files in this forum
You can download files in this forum

Скачать через торрент фильмы 4K Ultra HD 2160p бесплатно, на первом свободном torrent трекере без надоедливой рекламы. Качаем без ограничений, рейтингов и прочих трудностей. Ищите любимый сериал, у нас вы найдёте множество сериалов, фильмов, игр, музыки. Скачать торрентом не составит труда даже не опытному пользователю. Все торрент файлы доступны к скачиванию любому пользователю бесплатно. Переходи на freetorrent и качай по полной без регистрации и ограничений. И не забудьте поделиться ссылкой на наш сайт - мы будем очень благодарны. Это даёт нам сил и заряда для жизни проекта.

Ежедневно в мир выходит столько новых картин, что уследить за всеми просто не представляется возможным. На нашем крупнейшем русскоязычном торрент трекере вы сможете без труда скачать фильмы 4к через торрент бесплатно новинки фильмов, не проходя утомительную регистрацию с подтверждением в смс, без назойливой рекламы и перехода по подозрительным ссылкам, все желаемые файлы находятся в открытом доступе и доступны к загрузке без начисления рейтинга. Скачать новинки выгодно не только в финансовом плане, любую загруженную киноленту можно посмотреть в удобное время и в высоком качестве. Самая лучшая подборка кино фильмов 60 fps | UHD 2160p | 4K утолит желание каждого киномана, каталог постоянно пополняется только лучшими релизами. У нас представлена огромная коллекция как недавно вышедших новинок, так и давно полюбившихся бестселлеров. Для того, чтобы получить файл, вам стоит лишь перейти на вкладку искомого материала и скачать нужный торрент и подождать, пока программа перенесет полнометражную картину на компьютер. Главная страница послужит путеводителем и афишей, где можно за несколько минут найти необходимое. Первый русский свободный торрент сделан с максимальным комфортом для пользователя, не нужно тратить время на изучение интерфейса. Желаем вам приятного просмотра! Постоянное обновление и пополнение - новинками популярных игр, новый и безопасный софт, мультимедиа кпк Свободный торрент трекер.