Начало / Inception (2010) BDRip 1080p [HEVC] 10bit от HEVC-CLUB | D скачать торрент

Вы посетили страницу нашего torrent трекера и теперь имеете возможность скачать бесплатно через торрент Начало / Inception (2010) BDRip 1080p [HEVC] 10bit от HEVC-CLUB | D в хорошем качестве. Только лучшие релизы, на свободном torrent трекере.

Все раздачи мультитрекерные, даже при нуле сидов, можно качать на максимальной скорости. Скорость скачивания без ограничений !!!

DL-List and Torrent activity [Update пиров]
Size:  7.98 GB   |    Registered:  6 days   |    Completed:  0 times

Seeder not seen: Never

 
   
 
 
 

timon ®

Gender:
Male
Longevity:
2 years 11 months
Posts:
2183


Информация о фильме
Название: Начало
Оригинальное название: Inception
Год выхода: 2010
Жанр: Фантастика, боевик, триллер, драма, детектив
Режиссер: Кристофер Нолан
В ролях: Леонардо ДиКаприо, Джозеф Гордон-Левитт, Эллен Пейдж, Том Харди, Кен Ватанабе, Дилип Рао, Киллиан Мёрфи, Том Беренджер, Марион Котийяр, Пит Постлетуэйт, Майкл Кейн
О фильме:
Кобб — талантливый вор, лучший из лучших в опасном искусстве извлечения: он крадет ценные секреты из глубин подсознания во время сна, когда человеческий разум наиболее уязвим. Редкие способности Кобба сделали его ценным игроком в привычном к предательству мире промышленного шпионажа, но они же превратили его в извечного беглеца и лишили всего, что он когда-либо любил. И вот у Кобба появляется шанс исправить ошибки. Его последнее дело может вернуть все назад, но для этого ему нужно совершить невозможное — инициацию. Вместо идеальной кражи Кобб и его команда спецов должны будут провернуть обратное. Теперь их задача — не украсть идею, а внедрить ее. Если у них получится, это и станет идеальным преступлением. Но никакое планирование или мастерство не могут подготовить команду к встрече с опасным противником, который, кажется, предугадывает каждый их ход. Врагом, увидеть которого мог бы лишь Коб

Страна: США
Студия: Warner Bros. Pictures
Продолжительность: 02:28:07
Перевод: Дубляж
Файл
Кодек: HEVC x265 10 bit
Качество: BDRip-HEVC 1080p
Видео: 1920x800 , 7067 Кбит/сек, 0.192 бит/(Пиксели*Кадры), 23,976 кадр/сек , HEVC ([email protected]@High) 10 бит
Звук: 1. Русский, AC3, 640 Кбит/сек, 5.1, 48,0 КГц - Дубляж
Субтитры: Русские, английские [форсированные, полные]

Mediainfo

x265 [info]: frame I: 2270, Avg QP:15.76 kb/s: 17276.43
x265 [info]: frame P: 36506, Avg QP:16.96 kb/s: 11781.13
x265 [info]: frame B: 174321, Avg QP:19.00 kb/s: 5945.76
x265 [info]: Weighted P-Frames: Y:7.8% UV:5.2%
x265 [info]: Weighted B-Frames: Y:7.8% UV:4.7%
x265 [info]: consecutive B-frames: 9.6% 4.6% 5.9% 23.9% 7.2% 18.9% 5.2% 12.3% 2.3% 3.7% 1.6% 3.6% 1.2%
encoded 213097 frames in 424855.11s (0.50 fps), 7066.13 kb/s, Avg QP:18.62
Общее
Уникальный идентификатор : 207187419928774313564773777041307447912 (0x9BDED87A2AACE9038939F4BB126BB268)
Полное имя : F:СиквелыДиКаприоНачало (2010) BDRip 1080p [HEVC] 10bit by Spartanec1308 (1).mkv
Формат : Matroska
Версия формата : Version 4
Размер файла : 7,98 Гбайт
Продолжительность : 2 ч. 28 м.
Общий поток : 7710 Кбит/сек
Название фильма : by Spartanec 1308
Дата кодирования : UTC 2019-09-10 16:11:06
Программа кодирования : mkvmerge v7.0.0 (#039;Where We Going#039;) 64bit built on Jun 9 2014 15:16:27
Библиотека кодирования : libebml v1.3.0 + libmatroska v1.4.1
Обложка : Yes
Attachments : cover.jpg
Видео
Идентификатор : 1
Формат : HEVC
Формат/Информация : High Efficiency Video Coding
Профиль формата : Main [email protected]@High
Идентификатор кодека : V_MPEGH/ISO/HEVC
Продолжительность : 2 ч. 28 м.
Битрейт : 7067 Кбит/сек
Ширина : 1920 пикселей
Высота : 800 пикселей
Соотношение сторон : 2,40:1
Режим частоты кадров : Постоянный
Частота кадров : 23,976 (23976/1000) кадра/сек
Частота кадров в оригинале : 23,976 (24000/1001) кадра/сек
Цветовое пространство : YUV
Субдискретизация насыщенности : 4:2:0
Битовая глубина : 10 бит
Бит/(Пиксели*Кадры) : 0.192
Размер потока : 7,31 Гбайт (92%)
Заголовок : Spartanec 1308
Библиотека кодирования : x265 3.0_Au+10-74a8672ea4f7:[Windows][GCC 8.3.0][64 bit] 10bit
Настройки программы : cpuid=1111039 / frame-threads=4 / numa-pools=16 / wpp / no-pmode / no-pme / no-psnr / no-ssim / log-level=2 / input-csp=1 / input-res=1920x800 / interlace=0 / total-frames=213097 / level-idc=41 / high-tier=1 / uhd-bd=0 / ref=5 / no-allow-non-conformance / no-repeat-headers / annexb / no-aud / no-hrd / info / hash=0 / no-temporal-layers / open-gop / min-keyint=23 / keyint=240 / gop-lookahead=0 / bframes=12 / b-adapt=2 / b-pyramid / bframe-bias=0 / rc-lookahead=60 / lookahead-slices=0 / scenecut=40 / radl=0 / no-splice / no-intra-refresh / ctu=32 / min-cu-size=8 / rect / amp / max-tu-size=32 / tu-inter-depth=4 / tu-intra-depth=4 / limit-tu=1 / rdoq-level=2 / dynamic-rd=0.00 / no-ssim-rd / signhide / tskip / nr-intra=0 / nr-inter=0 / no-constrained-intra / no-strong-intra-smoothing / max-merge=5 / limit-refs=0 / no-limit-modes / me=3 / subme=7 / merange=57 / temporal-mvp / weightp / weightb / no-analyze-src-pics / deblock=-3:-3 / no-sao / no-sao-non-deblock / rd=6 / no-early-skip / no-rskip / no-fast-intra / no-tskip-fast / no-cu-lossless / b-intra / no-splitrd-skip / rdpenalty=0 / psy-rd=1.00 / psy-rdoq=1.00 / no-rd-refine / no-lossless / cbqpoffs=0 / crqpoffs=0 / rc=crf / crf=18.0 / qcomp=0.60 / qpstep=4 / stats-write=0 / stats-read=0 / vbv-maxrate=50000 / vbv-bufsize=50000 / vbv-init=0.9 / crf-max=0.0 / crf-min=0.0 / ipratio=1.40 / pbratio=1.30 / aq-mode=2 / aq-strength=0.70 / no-cutree / zone-count=0 / no-strict-cbr / qg-size=32 / no-rc-grain / qpmax=69 / qpmin=0 / no-const-vbv / sar=1 / overscan=0 / videoformat=5 / range=0 / colorprim=1 / transfer=1 / colormatrix=1 / chromaloc=0 / display-window=0 / max-cll=0,0 / min-luma=0 / max-luma=1023 / log2-max-poc-lsb=8 / vui-timing-info / vui-hrd-info / slices=1 / no-opt-qp-pps / no-opt-ref-list-length-pps / no-multi-pass-opt-rps / scenecut-bias=0.05 / no-opt-cu-delta-qp / no-aq-motion / no-hdr / no-hdr-opt / no-dhdr10-opt / no-idr-recovery-sei / analysis-reuse-level=5 / scale-factor=0 / refine-intra=0 / refine-inter=0 / refine-mv=0 / refine-ctu-distortion=0 / no-limit-sao / ctu-info=0 / no-lowpass-dct / refine-analysis-type=0 / copy-pic=1 / max-ausize-factor=1.0 / no-dynamic-refine / no-single-sei / no-hevc-aq / no-svt / qp-adaptation-range=1.00
Язык : English
Default : Да
Forced : Нет
Цветовой диапазон : Limited
Основные цвета : BT.709
Характеристики трансфера : BT.709
Коэффициенты матрицы : BT.709
Аудио
Идентификатор : 2
Формат : AC-3
Формат/Информация : Audio Coding 3
Коммерческое название : Dolby Digital
Идентификатор кодека : A_AC3
Продолжительность : 2 ч. 28 м.
Вид битрейта : Постоянный
Битрейт : 640 Кбит/сек
Каналы : 6 каналов
Channel layout : L R C LFE Ls Rs
Частота : 48,0 КГц
Частота кадров : 31,250 кадров/сек (1536 SPF)
Битовая глубина : 16 бит
Метод сжатия : С потерями
Размер потока : 678 Мбайт (8%)
Заголовок : Дубляж
Язык : Russian
ServiceKind/: Complete Main
Default : Нет
Forced : Нет
Текст #1
Идентификатор : 3
Формат : UTF-8
Идентификатор кодека : S_TEXT/UTF8
Идентификатор кодека/Информация : UTF-8 Plain Text
Продолжительность : 2 ч. 26 м.
Битрейт : 0 бит/сек
ElementCount : 15
Размер потока : 599 байт (0%)
Заголовок : Forsed BD
Язык : Russian
Default : Да
Forced : Нет
Текст #2
Идентификатор : 4
Формат : UTF-8
Идентификатор кодека : S_TEXT/UTF8
Идентификатор кодека/Информация : UTF-8 Plain Text
Продолжительность : 2 ч. 26 м.
Битрейт : 89 бит/сек
ElementCount : 1615
Размер потока : 95,7 Кбайт (0%)
Заголовок : Full BD
Язык : Russian
Default : Нет
Forced : Нет
Текст #3
Идентификатор : 5
Формат : UTF-8
Идентификатор кодека : S_TEXT/UTF8
Идентификатор кодека/Информация : UTF-8 Plain Text
Продолжительность : 2 ч. 9 м.
Битрейт : 0 бит/сек
ElementCount : 12
Размер потока : 493 байт (0%)
Заголовок : Forced (Voronine)
Язык : Russian
Default : Нет
Forced : Нет
Текст #4
Идентификатор : 6
Формат : UTF-8
Идентификатор кодека : S_TEXT/UTF8
Идентификатор кодека/Информация : UTF-8 Plain Text
Продолжительность : 2 ч. 19 м.
Битрейт : 99 бит/сек
ElementCount : 1541
Размер потока : 102 Кбайт (0%)
Заголовок : Full (Voronine)
Язык : Russian
Default : Нет
Forced : Нет
Текст #5
Идентификатор : 7
Формат : UTF-8
Идентификатор кодека : S_TEXT/UTF8
Идентификатор кодека/Информация : UTF-8 Plain Text
Продолжительность : 2 ч. 20 м.
Битрейт : 103 бит/сек
ElementCount : 1688
Размер потока : 106 Кбайт (0%)
Заголовок : Full SDH (Voronine)
Язык : Russian
Default : Нет
Forced : Нет
Текст #6
Идентификатор : 8
Формат : UTF-8
Идентификатор кодека : S_TEXT/UTF8
Идентификатор кодека/Информация : UTF-8 Plain Text
Продолжительность : 2 ч. 18 м.
Битрейт : 59 бит/сек
ElementCount : 1580
Размер потока : 60,8 Кбайт (0%)
Заголовок : Full
Язык : English
Default : Нет
Forced : Нет
Текст #7
Идентификатор : 9
Формат : UTF-8
Идентификатор кодека : S_TEXT/UTF8
Идентификатор кодека/Информация : UTF-8 Plain Text
Продолжительность : 2 ч. 27 м.
Битрейт : 59 бит/сек
ElementCount : 1738
Размер потока : 64,3 Кбайт (0%)
Заголовок : Full SDH
Язык : English
Default : Нет
Forced : Нет
Меню
00:00:00.000 : en:Scene 1
00:11:41.743 : en:Scene 2
00:21:37.338 : en:Scene 3
00:31:20.337 : en:Scene 4
00:41:22.230 : en:Scene 5
00:51:13.737 : en:Scene 6
01:01:21.553 : en:Scene 7
01:10:29.684 : en:Scene 8
01:22:15.597 : en:Scene 9
01:31:52.590 : en:Scene 10
01:40:38.532 : en:Scene 11
01:51:22.175 : en:Scene 12
02:00:54.414 : en:Scene 13
02:10:09.051 : en:Scene 14
02:20:55.447 : en:Scene 15

Скриншоты

Spartanec1308

[fromtorrents.com].t67555.torrent 
Torrent: Registered [ 2019-09-11 09:20 ] · 2CC16865313112DF9756A53797164F5FA277C92E

Download .torrent

21 KB

Status: checked
Completed: 0 times
Size: 7.98 GB
Rate: 
(Vote: 0)
Have thanked: 0  Thanks

Скачать через торрент Начало / Inception (2010) BDRip 1080p [HEVC] 10bit от HEVC-CLUB | D в хорошем качестве бесплатно


terms.php
Display posts:    

Current time is: 18-Sep 05:08

All times are UTC + 4



You cannot post new topics in this forum
You cannot reply to topics in this forum
You cannot edit your posts in this forum
You cannot delete your posts in this forum
You cannot vote in polls in this forum
You cannot attach files in this forum
You can download files in this forum

Скачать через торрент фильмы 4K Ultra HD 2160p бесплатно, на первом свободном torrent трекере без надоедливой рекламы. Качаем без ограничений, рейтингов и прочих трудностей. Ищите любимый сериал, у нас вы найдёте множество сериалов, фильмов, игр, музыки. Скачать торрентом не составит труда даже не опытному пользователю. Все торрент файлы доступны к скачиванию любому пользователю бесплатно. Переходи на freetorrent и качай по полной без регистрации и ограничений. И не забудьте поделиться ссылкой на наш сайт - мы будем очень благодарны. Это даёт нам сил и заряда для жизни проекта.

Ежедневно в мир выходит столько новых картин, что уследить за всеми просто не представляется возможным. На нашем крупнейшем русскоязычном торрент трекере вы сможете без труда скачать фильмы 4к через торрент бесплатно новинки фильмов, не проходя утомительную регистрацию с подтверждением в смс, без назойливой рекламы и перехода по подозрительным ссылкам, все желаемые файлы находятся в открытом доступе и доступны к загрузке без начисления рейтинга. Скачать новинки выгодно не только в финансовом плане, любую загруженную киноленту можно посмотреть в удобное время и в высоком качестве. Самая лучшая подборка кино фильмов 60 fps | UHD 2160p | 4K утолит желание каждого киномана, каталог постоянно пополняется только лучшими релизами. У нас представлена огромная коллекция как недавно вышедших новинок, так и давно полюбившихся бестселлеров. Для того, чтобы получить файл, вам стоит лишь перейти на вкладку искомого материала и скачать нужный торрент и подождать, пока программа перенесет полнометражную картину на компьютер. Главная страница послужит путеводителем и афишей, где можно за несколько минут найти необходимое. Первый русский свободный торрент сделан с максимальным комфортом для пользователя, не нужно тратить время на изучение интерфейса. Желаем вам приятного просмотра! Постоянное обновление и пополнение - новинками популярных игр, новый и безопасный софт, мультимедиа кпк Свободный торрент трекер.