В поисках Дори / Finding Dory (2016) UHD BDRip-HEVC 2160p | 4K | HDR | Лицензия скачать торрент

Вы посетили страницу нашего torrent трекера и теперь имеете возможность скачать бесплатно через торрент В поисках Дори / Finding Dory (2016) UHD BDRip-HEVC 2160p | 4K | HDR | Лицензия в хорошем качестве. Только лучшие релизы, на свободном torrent трекере.

 

timon ®

Gender:
Male
Longevity:
2 years 11 months
Posts:
2179


Год выхода: 2016
Страна / Студия: США / Pixar Animation Studios, Walt Disney Pictures
Жанр: мультфильм, комедия, приключения, семейный
Продолжительность: 01:37:03
Перевод: Дублированный (Лицензия)
Режиссер: Эндрю Стэнтон, Энгус МакЛэйн
В ролях: Эллен ДеДженерес, Альберт Брукс, Эд О`Нил, Кэйтлин Олсон, Хайден Роуленс, Тай Буррелл, Дайан Китон, Юджин Леви, Слоун Мюррэй, Идрис Эльба
Описание: Дори — синяя доброжелательная рыбка-хирург, страдающая провалами в памяти. Она забыла больше, чем вы когда-либо знали. Она говорит на языке китов и танцует на вечеринках с акулами. Во время поисков Немо она нашла друзей – теперь пришло время найти семью.
Качество: UHD BDRip-HEVC 2160p
Видео: HEVC/H.265, 3840x2160, ~12,1 Mbps
Аудио 1: AC3, 6 ch, 448 Kbps - Русский, дублированный
Аудио 2: AC3, 6 ch, 448 Kbps - Английский
Субтитры: Русские, английские (полные, SDH, SDH-Colored)

Mediainfo

Общее
Уникальный идентификатор : 305077021723999034479583597099049412076 (0xE583B2784F26DA37790C9081B925E5EC)
Полное имя : F:Finding Dory. 2016. UHD. 2160p. HDR. HEVC.mkv
Формат : Matroska
Версия формата : Version 4 / Version 2
Размер файла : 8,84 Гбайт
Продолжительность : 1 ч. 37 м.
Общий поток : 13,0 Мбит/сек
Дата кодирования : UTC 2019-09-08 09:29:08
Программа кодирования : mkvmerge v28.2.0 (#039;The Awakening#039;) 64-bit
Библиотека кодирования : libebml v1.3.6 + libmatroska v1.4.9
Обложка : Yes
Attachments : cover.jpg
Видео
Идентификатор : 1
Формат : HEVC
Формат/Информация : High Efficiency Video Coding
Коммерческое название : HDR10
Профиль формата : Main [email protected]@High
Идентификатор кодека : V_MPEGH/ISO/HEVC
Продолжительность : 1 ч. 37 м.
Битрейт : 12,1 Мбит/сек
Ширина : 3840 пикселей
Высота : 2160 пикселей
Соотношение сторон : 16:9
Режим частоты кадров : Постоянный
Частота кадров : 23,976 (24000/1001) кадра/сек
Цветовое пространство : YUV
Субдискретизация насыщенности : 4:2:0
Битовая глубина : 10 бит
Бит/(Пиксели*Кадры) : 0.061
Размер потока : 8,23 Гбайт (93%)
Язык : English
Default : Да
Forced : Нет
Цветовой диапазон : Limited
Основные цвета : BT.2020
Характеристики трансфера : PQ
Коэффициенты матрицы : BT.2020 non-constant
MasteringDisplay_ColorPrimaries : Display P3
MasteringDisplay_Luminance : min: 0.0001 cd/m2, max: 1000 cd/m2
Аудио #1
Идентификатор : 2
Формат : AC-3
Формат/Информация : Audio Coding 3
Идентификатор кодека : A_AC3
Продолжительность : 1 ч. 37 м.
Вид битрейта : Постоянный
Битрейт : 448 Кбит/сек
Каналы : 6 каналов
Расположение каналов : Front: L C R, Side: L R, LFE
Частота : 48,0 КГц
Частота кадров : 31,250 кадров/сек (1536 SPF)
Битовая глубина : 16 бит
Метод сжатия : С потерями
Размер потока : 311 Мбайт (3%)
Заголовок : Dub | DD 5.1 @ 448 kbps - Blu-ray CEE
Язык : Russian
ServiceKind/ : Complete Main
Default : Да
Forced : Нет
Аудио #2
Идентификатор : 3
Формат : AC-3
Формат/Информация : Audio Coding 3
Идентификатор кодека : A_AC3
Продолжительность : 1 ч. 37 м.
Вид битрейта : Постоянный
Битрейт : 448 Кбит/сек
Каналы : 6 каналов
Расположение каналов : Front: L C R, Side: L R, LFE
Частота : 48,0 КГц
Частота кадров : 31,250 кадров/сек (1536 SPF)
Битовая глубина : 16 бит
Метод сжатия : С потерями
Размер потока : 311 Мбайт (3%)
Заголовок : Original | DD 5.1 @ 448 kbps
Язык : English
ServiceKind/ : Complete Main
Default : Нет
Forced : Нет
Текст #1
Идентификатор : 4
Формат : UTF-8
Идентификатор кодека : S_TEXT/UTF8
Идентификатор кодека/Информация : UTF-8 Plain Text
Продолжительность : 1 ч. 35 м.
Битрейт : 126 бит/сек
ElementCount : 1456
Размер потока : 88,3 Кбайт (0%)
Заголовок : iTunes
Язык : Russian
Default : Нет
Forced : Нет
Текст #2
Идентификатор : 5
Формат : UTF-8
Идентификатор кодека : S_TEXT/UTF8
Идентификатор кодека/Информация : UTF-8 Plain Text
Продолжительность : 1 ч. 35 м.
Битрейт : 85 бит/сек
ElementCount : 1578
Размер потока : 59,4 Кбайт (0%)
Заголовок : Full
Язык : English
Default : Нет
Forced : Нет
Текст #3
Идентификатор : 6
Формат : UTF-8
Идентификатор кодека : S_TEXT/UTF8
Идентификатор кодека/Информация : UTF-8 Plain Text
Продолжительность : 1 ч. 35 м.
Битрейт : 92 бит/сек
ElementCount : 176
Размер потока : 64,7 Кбайт (0%)
Заголовок : SDH
Язык : English
Default : Нет
Forced : Нет
Текст #4
Идентификатор : 7
Формат : UTF-8
Идентификатор кодека : S_TEXT/UTF8
Идентификатор кодека/Информация : UTF-8 Plain Text
Продолжительность : 1 ч. 35 м.
Битрейт : 121 бит/сек
ElementCount : 1764
Размер потока : 84,7 Кбайт (0%)
Заголовок : SDH-Colored
Язык : English
Default : Нет
Forced : Нет
Меню
00:00:00.000 : en:Prologue
00:02:35.738 : en:Lost At Sea
00:06:50.159 : en:Life With Dory
00:10:53.152 : en:Losing Dory
00:13:32.937 : en:Dory Leads
00:15:25.007 : en:Totally Sick
00:17:03.022 : en:Shipping Lanes
00:19:35.465 : en:Marine Life Institute
00:21:35.294 : en:Under Quarantine
00:24:58.413 : en:Getting In
00:27:08.376 : en:No Pipes
00:30:33.206 : en:Manifest Destiny
00:35:00.056 : en:Operation Becky
00:37:52.019 : en:Stroller Crossing
00:40:17.998 : en:Stuck
00:41:06.297 : en:Argument
00:42:30.422 : en:Touch Pool
00:46:03.427 : en:Confession
00:48:41.585 : en:Tag
00:50:27.858 : en:Childhood Home
00:55:06.344 : en:Pipe Travel
00:57:05.839 : en:Meeting Marlin
01:00:41.346 : en:Off To Cleveland
01:04:32.910 : en:All Alone
01:10:36.732 : en:Game Plan
01:12:28.218 : en:Stop That Truck
01:14:09.862 : en:Time To Go
01:18:26.493 : en:Big Finish
01:26:49.329 : en:Epilogue
Download

Для того, чтобы

В поисках Дори / Finding Dory (2016) UHD BDRip-HEVC 2160p | 4K | HDR | Лицензия

с нашего сайта, Вам необходимо Войти на сайт под своим логином! Если у Вас ещё нет логина, тогда Вам нужно сначала:




How to Download? · What is a torrent? · Ratings and Limitations

Display posts:    

Current time is: 18-Sep 04:50

All times are UTC + 4



You cannot post new topics in this forum
You cannot reply to topics in this forum
You cannot edit your posts in this forum
You cannot delete your posts in this forum
You cannot vote in polls in this forum
You cannot attach files in this forum
You cannot download files in this forum

Скачать через торрент фильмы 4K Ultra HD 2160p бесплатно, на первом свободном torrent трекере без надоедливой рекламы. Качаем без ограничений, рейтингов и прочих трудностей. Ищите любимый сериал, у нас вы найдёте множество сериалов, фильмов, игр, музыки. Скачать торрентом не составит труда даже не опытному пользователю. Все торрент файлы доступны к скачиванию любому пользователю бесплатно. Переходи на freetorrent и качай по полной без регистрации и ограничений. И не забудьте поделиться ссылкой на наш сайт - мы будем очень благодарны. Это даёт нам сил и заряда для жизни проекта.

Ежедневно в мир выходит столько новых картин, что уследить за всеми просто не представляется возможным. На нашем крупнейшем русскоязычном торрент трекере вы сможете без труда скачать фильмы 4к через торрент бесплатно новинки фильмов, не проходя утомительную регистрацию с подтверждением в смс, без назойливой рекламы и перехода по подозрительным ссылкам, все желаемые файлы находятся в открытом доступе и доступны к загрузке без начисления рейтинга. Скачать новинки выгодно не только в финансовом плане, любую загруженную киноленту можно посмотреть в удобное время и в высоком качестве. Самая лучшая подборка кино фильмов 60 fps | UHD 2160p | 4K утолит желание каждого киномана, каталог постоянно пополняется только лучшими релизами. У нас представлена огромная коллекция как недавно вышедших новинок, так и давно полюбившихся бестселлеров. Для того, чтобы получить файл, вам стоит лишь перейти на вкладку искомого материала и скачать нужный торрент и подождать, пока программа перенесет полнометражную картину на компьютер. Главная страница послужит путеводителем и афишей, где можно за несколько минут найти необходимое. Первый русский свободный торрент сделан с максимальным комфортом для пользователя, не нужно тратить время на изучение интерфейса. Желаем вам приятного просмотра! Постоянное обновление и пополнение - новинками популярных игр, новый и безопасный софт, мультимедиа кпк Свободный торрент трекер.