Мертвые не умирают / The Dead Don't Die (2019) WEB-DL-HEVC 2160p | 4K | SDR | iTunes скачать торрент

Вы посетили страницу нашего torrent трекера и теперь имеете возможность скачать бесплатно через торрент Мертвые не умирают / The Dead Don't Die (2019) WEB-DL-HEVC 2160p | 4K | SDR | iTunes в хорошем качестве. Только лучшие релизы, на свободном torrent трекере.

 

timon ®

Gender:
Male
Longevity:
2 years 11 months
Posts:
2183

Информация о фильме
Название: Мертвые не умирают
Оригинальное название: The Dead Don#039;t Die
Год выхода: 2019
Жанр: Ужасы, фэнтези, комедия
Режиссер: Джим Джармуш
В ролях: Адам Драйвер, Билл Мюррей, Хлоя Севиньи, Тильда Суинтон, Стив Бушеми, Селена Гомес, Роберт Фицджеральд Диггз, Том Уэйтс, Эстер Балинт, Дэнни Гловер и др
О фильме:
В захолустном американском городке что-то пошло не так. День никак не заканчивается, домашние животные убегают в лес, телефоны не работают, а по радио играет одна и та же песня. Вскоре выяснится, что эти аномалии происходят по всей земле, и ядовитый лунный свет воскресит давно почивших. Помощник шерифа уверен — грядёт нашествие зомби, и ничем хорошим это не кончится.

Страна: США, Швеция
Продолжительность: 01:44:28
Перевод: Профессиональный (дублированный) | iTunes
Файл
Кодек: H.265
Качество: WEB-DL-HEVC 2160p
Видео: HEVC, 3840x2160 (16:9), 23.976 fps, 24.1 Mb/s
Аудио 1: AC-3, 48.0 kHz, 6 ch, 384 kb/s | RUS (DUB / iTunes)
Аудио 2: E-AC-3, 48.0 kHz, 6 ch, 640 kb/s | ENG (Оригинал)
Субтитры: Русские (форс.), английские (полные, SDH)
Сэмпл

MI

General
Unique ID : 194169462576188165506891538915105368606 (0x9213ADA039DF8281A47D89928712EA1E)
Complete name : The Dead Don#039;t Die.(2019).WEB-DL.2160p.SDR.H.265.mkv
Format : Matroska
Format version : Version 4
File size : 18.3 GiB
Duration : 1 h 44 min
Overall bit rate : 25.1 Mb/s
Encoded date : UTC 2019-09-05 14:25:02
Writing application : mkvmerge v8.3.0 (#039;Over the Horizon#039;) 64bit
Writing library : libebml v1.3.1 + libmatroska v1.4.2
Video
ID : 1
Format : HEVC
Format/Info : High Efficiency Video Coding
Format profile : Main [email protected]@High
Codec ID : V_MPEGH/ISO/HEVC
Duration : 1 h 44 min
Bit rate : 24.1 Mb/s
Width : 3 840 pixels
Height : 2 160 pixels
Display aspect ratio : 16:9
Frame rate mode : Constant
Frame rate : 23.976 (24000/1001) FPS
Color space : YUV
Chroma subsampling : 4:2:0 (Type 2)
Bit depth : 10 bits
Bits/(Pixel*Frame) : 0.121
Stream size : 17.6 GiB (96%)
Default : Yes
Forced : No
Color range : Limited
Color primaries : BT.709
Transfer characteristics : BT.709
Matrix coefficients : BT.709
Audio #1
ID : 2
Format : AC-3
Format/Info : Audio Coding 3
Commercial name : Dolby Digital
Codec ID : A_AC3
Duration : 1 h 44 min
Bit rate mode : Constant
Bit rate : 384 kb/s
Channel(s) : 6 channels
Channel layout : L R C LFE Ls Rs
Sampling rate : 48.0 kHz
Frame rate : 31.250 FPS (1536 SPF)
Bit depth : 16 bits
Compression mode : Lossy
Stream size : 287 MiB (2%)
Title : DUB [iTunes]
Language : Russian
Default : Yes
Forced : No
Audio #2
ID : 3
Format : E-AC-3
Format/Info : Enhanced AC-3
Commercial name : Dolby Digital Plus
Codec ID : A_EAC3
Duration : 1 h 44 min
Bit rate mode : Constant
Bit rate : 640 kb/s
Channel(s) : 6 channels
Channel layout : L R C LFE Ls Rs
Sampling rate : 48.0 kHz
Frame rate : 31.250 FPS (1536 SPF)
Compression mode : Lossy
Stream size : 478 MiB (3%)
Language : English
Default : No
Forced : No
Text #1
ID : 4
Format : UTF-8
Codec ID : S_TEXT/UTF8
Codec ID/Info : UTF-8 Plain Text
Duration : 1 h 18 min
Bit rate : 0 b/s
Count of elements : 10
Stream size : 396 Bytes (0%)
Title : Forced
Language : Russian
Default : Yes
Forced : No
Text #2
ID : 5
Format : UTF-8
Codec ID : S_TEXT/UTF8
Codec ID/Info : UTF-8 Plain Text
Duration : 1 h 41 min
Bit rate : 43 b/s
Count of elements : 1142
Stream size : 32.3 KiB (0%)
Title : Full
Language : English
Default : No
Forced : No
Text #3
ID : 6
Format : UTF-8
Codec ID : S_TEXT/UTF8
Codec ID/Info : UTF-8 Plain Text
Duration : 1 h 42 min
Bit rate : 52 b/s
Count of elements : 1365
Stream size : 39.3 KiB (0%)
Title : SDH
Language : English
Default : No
Forced : No
Menu
00:00:00.000 : :Chapter 01
00:05:01.384 : :Chapter 02
00:10:04.437 : :Chapter 03
00:17:04.148 : :Chapter 04
00:22:28.847 : :Chapter 05
00:28:04.724 : :Chapter 06
00:31:36.269 : :Chapter 07
00:37:56.649 : :Chapter 08
00:43:22.641 : :Chapter 09
00:50:53.050 : :Chapter 10
00:57:04.504 : :Chapter 11
01:01:16.964 : :Chapter 12
01:06:41.580 : :Chapter 13
01:09:20.823 : :Chapter 14
01:14:47.774 : :Chapter 15
01:18:47.681 : :Chapter 16
01:23:50.442 : :Chapter 17
01:28:10.201 : :Chapter 18
01:33:15.798 : :Chapter 19
01:39:11.487 : :Chapter 20

Скриншоты

Download

Для того, чтобы

Мертвые не умирают / The Dead Don't Die (2019) WEB-DL-HEVC 2160p | 4K | SDR | iTunes

с нашего сайта, Вам необходимо Войти на сайт под своим логином! Если у Вас ещё нет логина, тогда Вам нужно сначала:




How to Download? · What is a torrent? · Ratings and Limitations

Display posts:    

Current time is: 18-Sep 05:15

All times are UTC + 4



You cannot post new topics in this forum
You cannot reply to topics in this forum
You cannot edit your posts in this forum
You cannot delete your posts in this forum
You cannot vote in polls in this forum
You cannot attach files in this forum
You cannot download files in this forum

Скачать через торрент фильмы 4K Ultra HD 2160p бесплатно, на первом свободном torrent трекере без надоедливой рекламы. Качаем без ограничений, рейтингов и прочих трудностей. Ищите любимый сериал, у нас вы найдёте множество сериалов, фильмов, игр, музыки. Скачать торрентом не составит труда даже не опытному пользователю. Все торрент файлы доступны к скачиванию любому пользователю бесплатно. Переходи на freetorrent и качай по полной без регистрации и ограничений. И не забудьте поделиться ссылкой на наш сайт - мы будем очень благодарны. Это даёт нам сил и заряда для жизни проекта.

Ежедневно в мир выходит столько новых картин, что уследить за всеми просто не представляется возможным. На нашем крупнейшем русскоязычном торрент трекере вы сможете без труда скачать фильмы 4к через торрент бесплатно новинки фильмов, не проходя утомительную регистрацию с подтверждением в смс, без назойливой рекламы и перехода по подозрительным ссылкам, все желаемые файлы находятся в открытом доступе и доступны к загрузке без начисления рейтинга. Скачать новинки выгодно не только в финансовом плане, любую загруженную киноленту можно посмотреть в удобное время и в высоком качестве. Самая лучшая подборка кино фильмов 60 fps | UHD 2160p | 4K утолит желание каждого киномана, каталог постоянно пополняется только лучшими релизами. У нас представлена огромная коллекция как недавно вышедших новинок, так и давно полюбившихся бестселлеров. Для того, чтобы получить файл, вам стоит лишь перейти на вкладку искомого материала и скачать нужный торрент и подождать, пока программа перенесет полнометражную картину на компьютер. Главная страница послужит путеводителем и афишей, где можно за несколько минут найти необходимое. Первый русский свободный торрент сделан с максимальным комфортом для пользователя, не нужно тратить время на изучение интерфейса. Желаем вам приятного просмотра! Постоянное обновление и пополнение - новинками популярных игр, новый и безопасный софт, мультимедиа кпк Свободный торрент трекер.