Пьянь / Barfly (1987) BDRip 1080p by msltel | P, A скачать торрент

Вы посетили страницу нашего torrent трекера и теперь имеете возможность скачать бесплатно через торрент Пьянь / Barfly (1987) BDRip 1080p by msltel | P, A в хорошем качестве. Только лучшие релизы, на свободном torrent трекере.

Все раздачи мультитрекерные, даже при нуле сидов, можно качать на максимальной скорости. Скорость скачивания без ограничений !!!

DL-List and Torrent activity [Update пиров]
Size:  11.65 GB   |    Registered:  5 days   |    Completed:  0 times

Seeder not seen: Never

 
   
 
 
 

rico ®

Gender:
Male
Longevity:
2 years 11 months
Posts:
4363

Название: Пьянь
Оригинальное название: Barfly
Год выпуска: 1987
Жанр: Драма, мелодрама, комедия
Выпущено: США, Golan / Globus Production, Zoetrope Studios
Режиссер: Барбет Шредер
В ролях: Микки Рурк, Фэй Данауэй, Элис Крайдж, Джек Нэнс, Дж. К. Куин, Фрэнк Сталлоне, Сэнди Мартин, Роберта Бэссин, Глория ЛеРой, Джо Ангер
О фильме: Фильм поставлен по автобиографическому роману известного американского писателя Чарльза Буковски, завсегдатая многочисленных питейных заведений, откуда он черпал не только горячительные напитки, но и темы для своих произведений.
Качество: BDRip 1080p
Размер: 11.65 ГБ
Продолжительность: 01:40:00
Видео: MPEG-4 AVC, 14.4 Mбит/с, 1920x1036
Аудио 1: русский, 48 kHz, AC3, 2 ch, 192 kbps avg, [Профессиональный двухголосый, R5]
Аудио 2: русский, 48 kHz, AC3, 2 ch, 192 kbps avg, [Профессиональный двухголосый, HTB]
Аудио 3: русский, 48 kHz, DTS, 2 ch, 768 kbps avg, [Авторский, Алексей Михалёв]
Аудио 4: английский, 48 kHz, DTS, 2 ch, 768 kbps avg, [Оригинал]
Субтитры 1: русские
Субтитры 2: английские
Исходник: Буковски (Кинозал)
Сравнение с исходником

Награды

Золотой глобус, 1988 год
Номинации (1):
Лучшая женская роль (драма) (Фэй Данауэй)
Каннский кинофестиваль, 1987 год
Номинации (1):
Золотая пальмовая ветвь

MediaInfo + Лог х264

Общее
Уникальный идентификатор : 199450101346434740150480283962873767436 (0x960CB137E9C35692B780F48F9380660C)
Полное имя : D:VideoПьянь.1987.BDRip.1080p.mkv
Формат : Matroska
Версия формата : Version 4 / Version 2
Размер файла : 11,6 Гбайт
Продолжительность : 1 ч. 40 м.
Общий поток : 16,7 Мбит/сек
Дата кодирования : UTC 2014-05-27 02:02:27
Программа кодирования : mkvmerge v6.9.1 (#039;Blue Panther#039;) 64bit built on Apr 18 2014 18:23:38
Библиотека кодирования : libebml v1.3.0 + libmatroska v1.4.1
Видео
Идентификатор : 1
Формат : AVC
Формат/Информация : Advanced Video Codec
Профиль формата : [email protected]
Параметр CABAC формата : Да
Параметр ReFrames формата : 4 кадра
Идентификатор кодека : V_MPEG4/ISO/AVC
Продолжительность : 1 ч. 40 м.
Битрейт : 14,4 Мбит/сек
Ширина : 1920 пикселей
Высота : 1036 пикселей
Соотношение сторон : 1,85:1
Режим частоты кадров : Постоянный
Частота кадров : 23,976 кадра/сек
Цветовое пространство : YUV
Субдискретизация насыщенности : 4:2:0
Битовая глубина : 8 бит
Тип развёртки : Прогрессивная
Бит/(Пиксели*Кадры) : 0.302
Размер потока : 10,1 Гбайт (86%)
Заголовок : BDRip -- STarankov
Библиотека кодирования : x264 core 138 r2358 9e941d1
Настройки программы : cabac=1 / ref=4 / deblock=1:-1:-1 / analyse=0x3:0x113 / me=umh / subme=10 / psy=1 / psy_rd=1.00:0.15 / mixed_ref=1 / me_range=32 / chroma_me=1 / trellis=2 / 8x8dct=1 / cqm=0 / deadzone=21,11 / fast_pskip=0 / chroma_qp_offset=-3 / threads=6 / lookahead_threads=1 / sliced_threads=0 / nr=0 / decimate=1 / interlaced=0 / bluray_compat=0 / constrained_intra=0 / bframes=8 / b_pyramid=2 / b_adapt=2 / b_bias=0 / direct=1 / weightb=1 / open_gop=0 / weightp=2 / keyint=230 / keyint_min=23 / scenecut=40 / intra_refresh=0 / rc_lookahead=40 / rc=crf / mbtree=0 / crf=19.7 / qcomp=0.60 / qpmin=0 / qpmax=69 / qpstep=4 / vbv_maxrate=40000 / vbv_bufsize=50000 / crf_max=0.0 / nal_hrd=none / ip_ratio=1.40 / pb_ratio=1.30 / aq=1:1.00
Язык : English
Default : Да
Forced : Нет
Аудио #1
Идентификатор : 2
Формат : AC-3
Формат/Информация : Audio Coding 3
Расширение режима : CM (complete main)
Параметр Endianness формата : Big
Идентификатор кодека : A_AC3
Продолжительность : 1 ч. 40 м.
Вид битрейта : Постоянный
Битрейт : 192 Кбит/сек
Каналы : 2 канала
Расположение каналов : Front: L R
Частота : 48,0 КГц
Битовая глубина : 16 бит
Метод сжатия : С потерями
Размер потока : 137 Мбайт (1%)
Заголовок : DVO (R5)
Язык : Russian
Default : Да
Forced : Нет
Аудио #2
Идентификатор : 3
Формат : AC-3
Формат/Информация : Audio Coding 3
Расширение режима : CM (complete main)
Параметр Endianness формата : Big
Идентификатор кодека : A_AC3
Продолжительность : 1 ч. 40 м.
Вид битрейта : Постоянный
Битрейт : 192 Кбит/сек
Каналы : 2 канала
Расположение каналов : Front: L R
Частота : 48,0 КГц
Битовая глубина : 16 бит
Метод сжатия : С потерями
Размер потока : 137 Мбайт (1%)
Заголовок : DVO (HTB)
Язык : Russian
Default : Нет
Forced : Нет
Аудио #3
Идентификатор : 4
Формат : DTS
Формат/Информация : Digital Theater Systems
Режим : 16
Параметр Endianness формата : Big
Идентификатор кодека : A_DTS
Продолжительность : 1 ч. 40 м.
Вид битрейта : Постоянный
Битрейт : 768 Кбит/сек
Каналы : 2 канала
Расположение каналов : Front: L R
Частота : 48,0 КГц
Битовая глубина : 16 бит
Метод сжатия : С потерями
Размер потока : 549 Мбайт (5%)
Заголовок : AVO (Алексей Михалёв)
Язык : Russian
Default : Нет
Forced : Нет
Аудио #4
Идентификатор : 5
Формат : DTS
Формат/Информация : Digital Theater Systems
Режим : 16
Параметр Endianness формата : Big
Идентификатор кодека : A_DTS
Продолжительность : 1 ч. 40 м.
Вид битрейта : Постоянный
Битрейт : 768 Кбит/сек
Каналы : 2 канала
Расположение каналов : Front: L R
Частота : 48,0 КГц
Битовая глубина : 16 бит
Метод сжатия : С потерями
Размер потока : 549 Мбайт (5%)
Заголовок : Original
Язык : English
Default : Нет
Forced : Нет
Текст #1
Идентификатор : 6
Формат : UTF-8
Идентификатор кодека : S_TEXT/UTF8
Идентификатор кодека/Информация : UTF-8 Plain Text
Заголовок : русский
Язык : Russian
Default : Нет
Forced : Нет
Текст #2
Идентификатор : 7
Формат : UTF-8
Идентификатор кодека : S_TEXT/UTF8
Идентификатор кодека/Информация : UTF-8 Plain Text
Заголовок : английский
Default : Нет
Forced : Нет
---[Information] [26.05.2014 10:06:45] raw [info]: 1920x1036p 1:1 @ 24000/1001 fps (cfr)
---[Information] [26.05.2014 10:06:45] x264 [info]: using SAR=1/1
---[Information] [26.05.2014 10:06:45] x264 [info]: using cpu capabilities: MMX2 SSE2Fast SSSE3 SSE4.2
---[Information] [26.05.2014 10:06:45] x264 [info]: profile High, level 4.1
---[Information] [26.05.2014 23:19:29] x264 [info]: frame I:745 Avg QP:18.89 size:175645
---[Information] [26.05.2014 23:19:29] avs [info]: AviSynth 2.60, build:May 25 2011 [19:58:41]
---[Information] [26.05.2014 23:19:29] x264 [info]: frame P:22511 Avg QP:19.77 size:112947
---[Information] [26.05.2014 23:19:29] avs [info]: Video colorspace: YV12
---[Information] [26.05.2014 23:19:29] x264 [info]: frame B:120577 Avg QP:22.07 size: 69586
---[Information] [26.05.2014 23:19:29] avs [info]: Video resolution: 1920x1036
---[Information] [26.05.2014 23:19:29] x264 [info]: consecutive B-frames: 0.7% 0.4% 0.9% 6.2% 11.4% 24.9% 16.0% 23.1% 16.3%
---[Information] [26.05.2014 23:19:29] avs [info]: Video framerate: 24000/1001
---[Information] [26.05.2014 23:19:29] x264 [info]: mb I I16..4: 4.3% 90.4% 5.3%
---[Information] [26.05.2014 23:19:29] avs [info]: Video framecount: 143833
---[Information] [26.05.2014 23:19:29] x264 [info]: mb P I16..4: 1.1% 34.2% 0.9% P16..4: 30.6% 23.3% 7.4% 0.0% 0.0% skip: 2.5%
---[Information] [26.05.2014 23:19:29] avs4x264 [info]: quot;x264_64quot; - --level 4.1 --tune film --crf 19.7 --keyint 230 --bframes 8 --b-adapt 2 --ref 4 --vbv-bufsize 50000 --vbv-maxrate 40000 --no-mbtree --merange 32 --me umh --subme 10 --trellis 2 --no-fast-pskip --sar 1:1 --output D:RipPjanj.1987x264.BDRipPjanj.1987.BDRip.1080p.mkv --frames 143833 --fps 24000/1001 --input-res 1920x1036 --input-csp i420
---[Information] [26.05.2014 23:19:29] x264 [info]: mb B I16..4: 0.2% 4.5% 0.0% B16..8: 46.5% 16.8% 3.8% direct:15.6% skip:12.6% L0:45.0% L1:46.3% BI: 8.7%
---[Information] [26.05.2014 23:19:29] x264 [info]: 8x8 transform intra:94.4% inter:71.3%
---[Information] [26.05.2014 23:19:29] x264 [info]: coded y,uvDC,uvAC intra: 93.5% 68.4% 15.6% inter: 61.5% 37.4% 0.5%
---[Information] [26.05.2014 23:19:29] x264 [info]: i16 v,h,dc,p: 41% 13% 19% 28%
---[Information] [26.05.2014 23:19:29] x264 [info]: i8 v,h,dc,ddl,ddr,vr,hd,vl,hu: 9% 7% 11% 10% 13% 13% 12% 13% 13%
---[Information] [26.05.2014 23:19:29] x264 [info]: i4 v,h,dc,ddl,ddr,vr,hd,vl,hu: 12% 6% 5% 10% 14% 15% 13% 13% 13%
---[Information] [26.05.2014 23:19:29] x264 [info]: i8c dc,h,v,p: 37% 26% 25% 12%
---[Information] [26.05.2014 23:19:29] x264 [info]: Weighted P-Frames: Y:2.6% UV:1.4%
---[Information] [26.05.2014 23:19:29] x264 [info]: ref P L0: 47.0% 10.5% 26.7% 15.4% 0.3% 0.0%
---[Information] [26.05.2014 23:19:29] x264 [info]: ref B L0: 81.6% 15.3% 3.1%
---[Information] [26.05.2014 23:19:29] x264 [info]: ref B L1: 84.8% 15.2%
---[Information] [26.05.2014 23:19:29] x264 [info]: kb/s:14754.16
---[Information] [26.05.2014 23:19:29] encoded 143833 frames, 3.02 fps, 14754.16 kb/s
--[Information] [26.05.2014 23:19:30] Final statistics
---[Information] [26.05.2014 23:19:30] Constant Quality Mode: Quality 19 computed...
---[Information] [26.05.2014 23:19:30] Video Bitrate Obtained (approximate): 14755 kbit/s
--[Information] [26.05.2014 23:19:30] MediaInfo
---[Information] File: D:RipPjanj.1987x264.BDRipPjanj.1987.BDRip.1080p.mkv

Скриншоты


[fromtorrents.com].t66049.torrent 
Torrent: Registered [ 2019-08-13 18:20 ] · 21119C86CDEFC8E6AEA6D4CF231D9A1C6EC1B84B

Download .torrent

30 KB

Status: checked
Completed: 0 times
Size: 11.65 GB
Rate: 
(Vote: 0)
Have thanked: 0  Thanks

Скачать через торрент Пьянь / Barfly (1987) BDRip 1080p by msltel | P, A в хорошем качестве бесплатно


terms.php
Display posts:    

Current time is: 18-Aug 18:58

All times are UTC + 4



You cannot post new topics in this forum
You cannot reply to topics in this forum
You cannot edit your posts in this forum
You cannot delete your posts in this forum
You cannot vote in polls in this forum
You cannot attach files in this forum
You can download files in this forum

Скачать через торрент фильмы 4K Ultra HD 2160p бесплатно, на первом свободном torrent трекере без надоедливой рекламы. Качаем без ограничений, рейтингов и прочих трудностей. Ищите любимый сериал, у нас вы найдёте множество сериалов, фильмов, игр, музыки. Скачать торрентом не составит труда даже не опытному пользователю. Все торрент файлы доступны к скачиванию любому пользователю бесплатно. Переходи на freetorrent и качай по полной без регистрации и ограничений. И не забудьте поделиться ссылкой на наш сайт - мы будем очень благодарны. Это даёт нам сил и заряда для жизни проекта.

Ежедневно в мир выходит столько новых картин, что уследить за всеми просто не представляется возможным. На нашем крупнейшем русскоязычном торрент трекере вы сможете без труда скачать фильмы 4к через торрент бесплатно новинки фильмов, не проходя утомительную регистрацию с подтверждением в смс, без назойливой рекламы и перехода по подозрительным ссылкам, все желаемые файлы находятся в открытом доступе и доступны к загрузке без начисления рейтинга. Скачать новинки выгодно не только в финансовом плане, любую загруженную киноленту можно посмотреть в удобное время и в высоком качестве. Самая лучшая подборка кино фильмов 60 fps | UHD 2160p | 4K утолит желание каждого киномана, каталог постоянно пополняется только лучшими релизами. У нас представлена огромная коллекция как недавно вышедших новинок, так и давно полюбившихся бестселлеров. Для того, чтобы получить файл, вам стоит лишь перейти на вкладку искомого материала и скачать нужный торрент и подождать, пока программа перенесет полнометражную картину на компьютер. Главная страница послужит путеводителем и афишей, где можно за несколько минут найти необходимое. Первый русский свободный торрент сделан с максимальным комфортом для пользователя, не нужно тратить время на изучение интерфейса. Желаем вам приятного просмотра! Постоянное обновление и пополнение - новинками популярных игр, новый и безопасный софт, мультимедиа кпк Свободный торрент трекер.