Алита: Боевой ангел / Alita: Battle Angel (2019) UHD BDRemux 2160p от ExKinoRay | 4K | HDR | Dolby Vision TV | D, P | Локализованная версия | Лицензия скачать торрент

Вы посетили страницу нашего torrent трекера и теперь имеете возможность скачать бесплатно через торрент Алита: Боевой ангел / Alita: Battle Angel (2019) UHD BDRemux 2160p от ExKinoRay | 4K | HDR | Dolby Vision TV | D, P | Локализованная версия | Лицензия в хорошем качестве. Только лучшие релизы, на свободном torrent трекере.

 

briqada ®

Gender:
Unknown
Longevity:
2 years 7 months
Posts:
2893

Алита: Боевой ангел
Alita: Battle Angel
«Ангел падёт, и восстанет воин»
Название: Алита: Боевой ангел
Оригинальное название: Alita: Battle Angel
Год выпуска: 2019
Жанр: Фантастика, боевик, триллер, мелодрама, приключения
Выпущено: Канада, Аргентина, США, Twentieth Century Fox, Lightstorm Entertainment, Troublemaker Studios
Режиссер: Роберт Родригес
В ролях: Роза Салазар, Кристоф Вальц, Дженнифер Коннелли, Махершала Али, Эд Скрейн, Джеки Эрл Хейли, Кин Джонсон, Хорхе Лендеборг мл., Лана Кондор, Идара Виктор
Продолжительность: 02:01:57
Перевод: Дублированный | Лицензия, Многоголосый
Описание:
Действие фильма происходит через 300 лет после Великой войны в XXVI веке. Доктор Идо находит останки женщины-киборга. После починки киборг ничего не помнит, но обнаруживает, что в состоянии пользоваться боевыми приемами киборгов. Начинаются поиски утерянных воспоминаний.


Файл
Контейнер: MP4
Качество: Blu-Ray Remux (2160p)
Видео: HEVC/DVHE, 41.1 Mбит/с, 3840x2160, 23.976 кадр/с
Аудио #1: DTS, 768 kb/s, CBR (Russian) Дублированный
Аудио #2: AC-3, 6 ch, 448 kb/s, CBR (Russian) Дублированный
Аудио #3: AC-3, 2 ch, 192 kb/s, CBR (Russian) Многоголосый - [CВ Студия]
Аудио #4: AC-3, 2 ch, 192 kb/s, CBR (Russian) Многоголосый - []
Аудио #5: AC-3, 6 ch, 448 kb/s, CBR (Ukrainian) Дублированный
Аудио #6: AC-3, 6 ch, 640 kb/s, CBR (English) Оригинал
Субтитры: Русские, английские, украинские | Внешние

[color=red]Внимание![/color]

Данный вид релизов (контейнер MP4) предназначен для встроенного в ТВ (соответственно, с поддержкой DV) плеер.
Т.Е. Можно использовать как USB flash/HDD, так и DLNA / Plex - подобные сервисы/программы. дополнительный-внешний плеер не обязателен.
Внимание!
Релиз с однопоточным видео для Dolby Vison TV, Включая Sony / LG 2016 / Apple TV

Скриншоты



MI:

General
Complete name : Alita.Battle.Angel.2019.UHD.BDRemux.2160p.HEVC.DV.TV.IVA(RUS.UKR.ENG)..mp4
Format : MPEG-4
Format profile : Base Media / Version 2
Codec ID : mp42 (mp42/isom/dby1)
File size : 37.6 GiB
Duration : 2 h 1 min
Overall bit rate : 44.1 Mb/s
Movie name : Alita.Battle.Angel.2019.UHD.BDRemux.2160p.HEVC.DV.TV.IVA(RUS.UKR.ENG).
Encoded date : UTC 2019-08-01 13:19:30
Tagged date : UTC 2019-08-01 13:35:10
Writing application : IVA.
Video
ID : 1
Format : HEVC
Format/Info : High Efficiency Video Coding
Format profile : Main [email protected]@High
HDR format : Dolby Vision, Version 1.0, dvhe.05.06, BL+RPU / SMPTE ST 2094 App 4, Version 1, HDR10+ Profile A compatible
Codec ID : dvhe
Codec ID/Info : High Efficiency Video Coding with Dolby Vision
Duration : 2 h 1 min
Bit rate : 41.4 Mb/s
Width : 3 840 pixels
Height : 2 160 pixels
Display aspect ratio : 16:9
Frame rate mode : Constant
Frame rate : 23.976 (24000/1001) FPS
Color space : YUV
Chroma subsampling : 4:2:0 (Type 2)
Bit depth : 10 bits
Bits/(Pixel*Frame) : 0.208
Stream size : 35.3 GiB (94%)
Encoded date : UTC 2019-08-01 13:19:30
Tagged date : UTC 2019-08-01 13:35:03
Color range : Limited
Color primaries : BT.2020
Transfer characteristics : PQ
Matrix coefficients : BT.2020 non-constant
Mastering display color primaries : Display P3
Mastering display luminance : min: 0.0001 cd/m2, max: 1000 cd/m2
Maximum Content Light Level : 182 cd/m2
Maximum Frame-Average Light Level : 63 cd/m2
Codec configuration box : hvcC+dvcC
Audio #1
ID : 2
Format : DTS
Format/Info : Digital Theater Systems
Codec ID : dtsc
Codec ID/Info : Digital Theater Systems
Duration : 2 h 1 min
Bit rate mode : Constant
Bit rate : 768 kb/s
Bit depth : 28 bits
Stream size : 670 MiB (2%)
Title : Russian (dts 5.1)
Language : Russian
Default : Yes
Alternate group : 1
Encoded date : UTC 2019-08-01 13:19:30
Tagged date : UTC 2019-08-01 13:35:03
Audio #2
ID : 3
Format : AC-3
Format/Info : Audio Coding 3
Commercial name : Dolby Digital
Codec ID : ac-3
Duration : 2 h 1 min
Bit rate mode : Constant
Bit rate : 448 kb/s
Channel(s) : 6 channels
Channel layout : L R C LFE Ls Rs
Sampling rate : 48.0 kHz
Frame rate : 31.250 FPS (1536 SPF)
Bit depth : 16 bits
Compression mode : Lossy
Stream size : 391 MiB (1%)
Title : Russian (ac3 5.1)
Language : Russian
Service kind : Complete Main
Default : No
Alternate group : 1
Encoded date : UTC 2019-08-01 13:19:30
Tagged date : UTC 2019-08-01 13:35:03
Audio #3
ID : 4
Format : AC-3
Format/Info : Audio Coding 3
Commercial name : Dolby Digital
Codec ID : ac-3
Duration : 2 h 1 min
Bit rate mode : Constant
Bit rate : 192 kb/s
Channel(s) : 2 channels
Channel layout : L R
Sampling rate : 48.0 kHz
Frame rate : 31.250 FPS (1536 SPF)
Bit depth : 16 bits
Compression mode : Lossy
Stream size : 167 MiB (0%)
Title : Russian (ac3 2.0)
Language : Russian
Service kind : Complete Main
Default : No
Alternate group : 1
Encoded date : UTC 2019-08-01 13:19:30
Tagged date : UTC 2019-08-01 13:35:03
Audio #4
ID : 5
Format : AC-3
Format/Info : Audio Coding 3
Commercial name : Dolby Digital
Codec ID : ac-3
Duration : 2 h 1 min
Bit rate mode : Constant
Bit rate : 192 kb/s
Channel(s) : 2 channels
Channel layout : L R
Sampling rate : 48.0 kHz
Frame rate : 31.250 FPS (1536 SPF)
Bit depth : 16 bits
Compression mode : Lossy
Stream size : 167 MiB (0%)
Title : Russian (ac3 2.0)
Language : Russian
Service kind : Complete Main
Default : No
Alternate group : 1
Encoded date : UTC 2019-08-01 13:19:30
Tagged date : UTC 2019-08-01 13:35:03
Audio #5
ID : 6
Format : AC-3
Format/Info : Audio Coding 3
Commercial name : Dolby Digital
Codec ID : ac-3
Duration : 2 h 1 min
Bit rate mode : Constant
Bit rate : 448 kb/s
Channel(s) : 6 channels
Channel layout : L R C LFE Ls Rs
Sampling rate : 48.0 kHz
Frame rate : 31.250 FPS (1536 SPF)
Bit depth : 16 bits
Compression mode : Lossy
Stream size : 391 MiB (1%)
Title : Ukrainian (ac3 5.1)
Language : Ukrainian
Service kind : Complete Main
Default : No
Alternate group : 1
Encoded date : UTC 2019-08-01 13:19:30
Tagged date : UTC 2019-08-01 13:35:03
Audio #6
ID : 7
Format : AC-3
Format/Info : Audio Coding 3
Commercial name : Dolby Digital
Codec ID : ac-3
Duration : 2 h 1 min
Bit rate mode : Constant
Bit rate : 640 kb/s
Channel(s) : 6 channels
Channel layout : L R C LFE Ls Rs
Sampling rate : 48.0 kHz
Frame rate : 31.250 FPS (1536 SPF)
Bit depth : 16 bits
Compression mode : Lossy
Stream size : 558 MiB (1%)
Title : English (ac3 5.1)
Language : English
Service kind : Complete Main
Default : No
Alternate group : 1
Encoded date : UTC 2019-08-01 13:19:30
Tagged date : UTC 2019-08-01 13:35:03
Download

Для того, чтобы

Алита: Боевой ангел / Alita: Battle Angel (2019) UHD BDRemux 2160p от ExKinoRay | 4K | HDR | Dolby Vision TV | D, P | Локализованная версия | Лицензия

с нашего сайта, Вам необходимо Войти на сайт под своим логином! Если у Вас ещё нет логина, тогда Вам нужно сначала:




How to Download? · What is a torrent? · Ratings and Limitations

Display posts:    

Current time is: 18-Aug 19:33

All times are UTC + 4



You cannot post new topics in this forum
You cannot reply to topics in this forum
You cannot edit your posts in this forum
You cannot delete your posts in this forum
You cannot vote in polls in this forum
You cannot attach files in this forum
You cannot download files in this forum

Скачать через торрент фильмы 4K Ultra HD 2160p бесплатно, на первом свободном torrent трекере без надоедливой рекламы. Качаем без ограничений, рейтингов и прочих трудностей. Ищите любимый сериал, у нас вы найдёте множество сериалов, фильмов, игр, музыки. Скачать торрентом не составит труда даже не опытному пользователю. Все торрент файлы доступны к скачиванию любому пользователю бесплатно. Переходи на freetorrent и качай по полной без регистрации и ограничений. И не забудьте поделиться ссылкой на наш сайт - мы будем очень благодарны. Это даёт нам сил и заряда для жизни проекта.

Ежедневно в мир выходит столько новых картин, что уследить за всеми просто не представляется возможным. На нашем крупнейшем русскоязычном торрент трекере вы сможете без труда скачать фильмы 4к через торрент бесплатно новинки фильмов, не проходя утомительную регистрацию с подтверждением в смс, без назойливой рекламы и перехода по подозрительным ссылкам, все желаемые файлы находятся в открытом доступе и доступны к загрузке без начисления рейтинга. Скачать новинки выгодно не только в финансовом плане, любую загруженную киноленту можно посмотреть в удобное время и в высоком качестве. Самая лучшая подборка кино фильмов 60 fps | UHD 2160p | 4K утолит желание каждого киномана, каталог постоянно пополняется только лучшими релизами. У нас представлена огромная коллекция как недавно вышедших новинок, так и давно полюбившихся бестселлеров. Для того, чтобы получить файл, вам стоит лишь перейти на вкладку искомого материала и скачать нужный торрент и подождать, пока программа перенесет полнометражную картину на компьютер. Главная страница послужит путеводителем и афишей, где можно за несколько минут найти необходимое. Первый русский свободный торрент сделан с максимальным комфортом для пользователя, не нужно тратить время на изучение интерфейса. Желаем вам приятного просмотра! Постоянное обновление и пополнение - новинками популярных игр, новый и безопасный софт, мультимедиа кпк Свободный торрент трекер.