Дорз / The Doors (1991) UHD BDRemux 2160p | 4K | HDR | P, P2, A скачать торрент

Вы посетили страницу нашего torrent трекера и теперь имеете возможность скачать бесплатно через торрент Дорз / The Doors (1991) UHD BDRemux 2160p | 4K | HDR | P, P2, A в хорошем качестве. Только лучшие релизы, на свободном torrent трекере.

 

briqada ®

Gender:
Unknown
Longevity:
2 years 7 months
Posts:
2893


Информация о фильме
Название: Дорз
Оригинальное название: The Doors
Год выхода: 1991
Жанр: драма, биография, музыка
Режиссер: Оливер Стоун
В ролях: Вэл Килмер, Кэтлин Куинлен, Майкл Уинкотт, Майкл Мэдсен, Джош Эванс, Деннис Беркли, Билли Айдол, Кайл МакЛахлан, Мег Райан, Кевин Диллон
О фильме:
Классический фильм об известном американском музыканте и секс-символе Джиме Моррисоне, его легендарной группе «Дорз» и славных шестидесятых. Это были годы небывалого стремления к свободе и ошеломляющей популярности рок-н-ролла.
Его идолы возводились на пьедестал, им поклонялись и подражали. «Дорз» и их раскованная, пьянящая музыка стали символом поколения.

Страна: США
Продолжительность: 02:20:29
Перевод: Профессиональный многоголосый закадровый, профессиональный двухголосый закадровый, авторский одноголосый закадровый
Файл
Качество: UHD BDRemux 2160p | 4K | HDR
Видео: HEVC, 50.5 Mбит/с, 3840x2160, 24.000 Кадр/с
Аудио 1: 48 kHz, AC3, 6ch, ~448.00 kbps avg /RUS/ Профессиональный двухголосый (D2Lab)
Аудио 2: 48 kHz, AC3, 6ch, ~384.00 kbps avg /RUS/ Профессиональный многоголосый (CP-Digital)
Аудио 3: 48 kHz, AC3, 6ch, ~448.00 kbps avg /RUS/ Профессиональный двухголосый (816 DVD TEAM)
Аудио 4: 48 kHz, DTS, 6ch, ~1510.00 kbps avg /RUS/ Одноголосый закадровый, (М. Чадов)
Аудио 5: 48 kHz, DTS, 6ch, ~1510.00 kbps avg /RUS/ Одноголосый закадровый, (Гаврилов)
Аудио 6: 48 kHz, TrueHD, 8ch, ~5028.00 kbps avg /ENG/ Оригинал
Аудио 7: 48 kHz, DTS-HD MA, 8ch, ~4765.00 kbps avg /ENG/ Оригинал
Аудио 8: 48 kHz, AC3, 6ch, ~640.00 kbps avg /ENG/ Оригинал
Субтитры: Русские, английские

Скриншоты

MediaInfo

Complete name : H:Movies4KThe.Doors.1991.2160p.BluRay.REMUX.HEVC.DTS-HD.MA.TrueHD.7.1.Atmos-SHD13.mkv
Format : Matroska
Format version : Version 4
File size : 62.6 GiB
Duration : 2 h 20 min
Overall bit rate mode : Variable
Overall bit rate : 63.8 Mb/s
Movie name : The.Doors.1991.2160p.BluRay.REMUX.HEVC.DTS-HD.MA.TrueHD.7.1.Atmos-SHD13
Encoded date : UTC 2019-07-24 20:27:30
Writing application : mkvmerge v34.0.0 (#039;Sight and Seen#039;) 64-bit
Writing library : libebml v1.3.7 + libmatroska v1.5.0
Attachments : poster.png
Video
ID : 1
Format : HEVC
Format/Info : High Efficiency Video Coding
Format profile : Main [email protected]@High
HDR format : SMPTE ST 2086, HDR10 compatible
Codec ID : V_MPEGH/ISO/HEVC
Duration : 2 h 20 min
Bit rate : 50.5 Mb/s
Width : 3 840 pixels
Height : 2 160 pixels
Display aspect ratio : 16:9
Frame rate mode : Constant
Frame rate : 24.000 FPS
Color space : YUV
Chroma subsampling : 4:2:0 (Type 2)
Bit depth : 10 bits
Bits/(Pixel*Frame) : 0.254
Stream size : 49.6 GiB (79%)
Title : The.Doors.1991.2160p.BluRay.REMUX.HEVC.DTS-HD.MA.TrueHD.7.1.Atmos-SHD13
Language : Russian
Default : Yes
Forced : No
Color range : Limited
Color primaries : BT.2020
Transfer characteristics : PQ
Matrix coefficients : BT.2020 non-constant
Mastering display color pri : Display P3
Mastering display luminance : min: 0.0001 cd/m2, max: 1000 cd/m2
Audio #1
ID : 2
Format : AC-3
Format/Info : Audio Coding 3
Commercial name : Dolby Digital
Codec ID : A_AC3
Duration : 2 h 20 min
Bit rate mode : Constant
Bit rate : 448 kb/s
Channel(s) : 6 channels
Channel layout : L R C LFE Ls Rs
Sampling rate : 48.0 kHz
Frame rate : 31.250 FPS (1536 SPF)
Bit depth : 16 bits
Compression mode : Lossy
Stream size : 449 MiB (1%)
Title : DVO, D2Lab
Language : Russian
Service kind : Complete Main
Default : No
Forced : No
Audio #2
ID : 3
Format : AC-3
Format/Info : Audio Coding 3
Commercial name : Dolby Digital
Codec ID : A_AC3
Duration : 2 h 20 min
Bit rate mode : Constant
Bit rate : 384 kb/s
Channel(s) : 6 channels
Channel layout : L R C LFE Ls Rs
Sampling rate : 48.0 kHz
Frame rate : 31.250 FPS (1536 SPF)
Bit depth : 16 bits
Compression mode : Lossy
Stream size : 385 MiB (1%)
Title : MVO, CP Digital
Language : Russian
Service kind : Complete Main
Default : No
Forced : No
Audio #3
ID : 4
Format : AC-3
Format/Info : Audio Coding 3
Commercial name : Dolby Digital
Codec ID : A_AC3
Duration : 2 h 20 min
Bit rate mode : Constant
Bit rate : 448 kb/s
Channel(s) : 6 channels
Channel layout : L R C LFE Ls Rs
Sampling rate : 48.0 kHz
Frame rate : 31.250 FPS (1536 SPF)
Bit depth : 16 bits
Compression mode : Lossy
Stream size : 449 MiB (1%)
Title : DVO, DVD TEAM
Language : Russian
Service kind : Complete Main
Default : No
Forced : No
Audio #4
ID : 5
Format : DTS
Format/Info : Digital Theater Systems
Codec ID : A_DTS
Duration : 2 h 20 min
Bit rate mode : Constant
Bit rate : 1 510 kb/s
Channel(s) : 6 channels
Channel layout : C L R Ls Rs LFE
Sampling rate : 48.0 kHz
Frame rate : 93.750 FPS (512 SPF)
Bit depth : 24 bits
Compression mode : Lossy
Stream size : 1.48 GiB (2%)
Title : AVO, Чадов
Language : Russian
Default : No
Forced : No
Audio #5
ID : 6
Format : DTS
Format/Info : Digital Theater Systems
Codec ID : A_DTS
Duration : 2 h 20 min
Bit rate mode : Constant
Bit rate : 1 510 kb/s
Channel(s) : 6 channels
Channel layout : C L R Ls Rs LFE
Sampling rate : 48.0 kHz
Frame rate : 93.750 FPS (512 SPF)
Bit depth : 24 bits
Compression mode : Lossy
Stream size : 1.48 GiB (2%)
Title : AVO, Гаврилов
Language : Russian
Default : No
Forced : No
Audio #6
ID : 7
Format : MLP FBA 16-ch
Format/Info : Meridian Lossless Packing FBA with 16-channel presentation
Commercial name : Dolby TrueHD with Dolby Atmos
Codec ID : A_TRUEHD
Duration : 2 h 20 min
Bit rate mode : Variable
Bit rate : 3 444 kb/s
Maximum bit rate : 5 028 kb/s
Channel(s) : 8 channels
Channel layout : L R C LFE Ls Rs Lb Rb
Sampling rate : 48.0 kHz
Frame rate : 1 200.000 FPS (40 SPF)
Compression mode : Lossless
Delay relative to video : 3 s 42 ms
Stream size : 3.38 GiB (5%)
Title : TrueHD.7.1
Language : English
Default : Yes
Forced : No
Number of dynamic objects : 11
Bed channel count : 1 channel
Bed channel configuration : LFE
Audio #7
ID : 8
Format : DTS XLL
Format/Info : Digital Theater Systems
Commercial name : DTS-HD Master Audio
Codec ID : A_DTS
Duration : 2 h 20 min
Bit rate mode : Variable
Bit rate : 4 765 kb/s
Channel(s) : 8 channels
Channel layout : C L R LFE Lb Rb Lss Rss
Sampling rate : 48.0 kHz
Frame rate : 93.750 FPS (512 SPF)
Bit depth : 24 bits
Compression mode : Lossless
Stream size : 4.68 GiB (7%)
Title : DTS-HD.MA.7.1
Language : English
Default : No
Forced : No
Audio #8
ID : 9
Format : AC-3
Format/Info : Audio Coding 3
Commercial name : Dolby Digital
Codec ID : A_AC3
Duration : 2 h 20 min
Bit rate mode : Constant
Bit rate : 640 kb/s
Channel(s) : 6 channels
Channel layout : L R C LFE Ls Rs
Sampling rate : 48.0 kHz
Frame rate : 31.250 FPS (1536 SPF)
Bit depth : 16 bits
Compression mode : Lossy
Delay relative to video : 3 s 42 ms
Stream size : 643 MiB (1%)
Language : English
Service kind : Complete Main
Default : No
Forced : No
Text #1
ID : 10
Format : UTF-8
Codec ID : S_TEXT/UTF8
Codec ID/Info : UTF-8 Plain Text
Duration : 2 h 13 min
Bit rate : 65 b/s
Count of elements : 1820
Stream size : 64.0 KiB (0%)
Title : Full
Language : English
Default : Yes
Forced : No
Text #2
ID : 11
Format : UTF-8
Codec ID : S_TEXT/UTF8
Codec ID/Info : UTF-8 Plain Text
Duration : 2 h 14 min
Bit rate : 70 b/s
Count of elements : 1987
Stream size : 69.3 KiB (0%)
Title : SDH
Language : English
Default : No
Forced : No
Text #3
ID : 12
Format : UTF-8
Codec ID : S_TEXT/UTF8
Codec ID/Info : UTF-8 Plain Text
Duration : 2 h 16 min
Bit rate : 20 b/s
Count of elements : 506
Stream size : 20.5 KiB (0%)
Title : Переводман (форc)
Language : Russian
Default : No
Forced : No
Text #4
ID : 13
Format : UTF-8
Codec ID : S_TEXT/UTF8
Codec ID/Info : UTF-8 Plain Text
Duration : 2 h 19 min
Bit rate : 108 b/s
Count of elements : 2055
Stream size : 111 KiB (0%)
Title : Переводман (полные)
Language : Russian
Default : No
Forced : No
Text #5
ID : 14
Format : UTF-8
Codec ID : S_TEXT/UTF8
Codec ID/Info : UTF-8 Plain Text
Duration : 2 h 10 min
Bit rate : 85 b/s
Count of elements : 1438
Stream size : 82.0 KiB (0%)
Title : D2Lab
Language : Russian
Default : No
Forced : No
Text #6
ID : 15
Format : UTF-8
Codec ID : S_TEXT/UTF8
Codec ID/Info : UTF-8 Plain Text
Duration : 2 h 12 min
Bit rate : 92 b/s
Count of elements : 1737
Stream size : 89.5 KiB (0%)
Title : DVD TEAM
Language : Russian
Default : No
Forced : No
Text #7
ID : 16
Format : UTF-8
Codec ID : S_TEXT/UTF8
Codec ID/Info : UTF-8 Plain Text
Duration : 2 h 10 min
Bit rate : 12 b/s
Count of elements : 290
Stream size : 12.2 KiB (0%)
Title : forced
Language : Russian
Default : No
Forced : No
Text #8
ID : 17
Format : UTF-8
Codec ID : S_TEXT/UTF8
Codec ID/Info : UTF-8 Plain Text
Duration : 2 h 12 min
Bit rate : 78 b/s
Count of elements : 1140
Stream size : 75.8 KiB (0%)
Title : CP Digital
Language : Russian
Default : No
Forced : No
Menu
00:00:00.000 : en:Chapter 01
00:14:50.291 : en:Chapter 02
00:22:26.250 : en:Chapter 03
00:41:02.958 : en:Chapter 04
00:50:09.958 : en:Chapter 05
01:09:07.875 : en:Chapter 06
01:19:59.125 : en:Chapter 07
01:29:20.250 : en:Chapter 08
01:36:38.333 : en:Chapter 09
01:47:33.416 : en:Chapter 10
01:57:45.416 : en:Chapter 11
02:12:07.208 : en:Chapter 12
Download

Для того, чтобы

Дорз / The Doors (1991) UHD BDRemux 2160p | 4K | HDR | P, P2, A

с нашего сайта, Вам необходимо Войти на сайт под своим логином! Если у Вас ещё нет логина, тогда Вам нужно сначала:




How to Download? · What is a torrent? · Ratings and Limitations

Display posts:    

Current time is: 18-Aug 18:58

All times are UTC + 4



You cannot post new topics in this forum
You cannot reply to topics in this forum
You cannot edit your posts in this forum
You cannot delete your posts in this forum
You cannot vote in polls in this forum
You cannot attach files in this forum
You cannot download files in this forum

Скачать через торрент фильмы 4K Ultra HD 2160p бесплатно, на первом свободном torrent трекере без надоедливой рекламы. Качаем без ограничений, рейтингов и прочих трудностей. Ищите любимый сериал, у нас вы найдёте множество сериалов, фильмов, игр, музыки. Скачать торрентом не составит труда даже не опытному пользователю. Все торрент файлы доступны к скачиванию любому пользователю бесплатно. Переходи на freetorrent и качай по полной без регистрации и ограничений. И не забудьте поделиться ссылкой на наш сайт - мы будем очень благодарны. Это даёт нам сил и заряда для жизни проекта.

Ежедневно в мир выходит столько новых картин, что уследить за всеми просто не представляется возможным. На нашем крупнейшем русскоязычном торрент трекере вы сможете без труда скачать фильмы 4к через торрент бесплатно новинки фильмов, не проходя утомительную регистрацию с подтверждением в смс, без назойливой рекламы и перехода по подозрительным ссылкам, все желаемые файлы находятся в открытом доступе и доступны к загрузке без начисления рейтинга. Скачать новинки выгодно не только в финансовом плане, любую загруженную киноленту можно посмотреть в удобное время и в высоком качестве. Самая лучшая подборка кино фильмов 60 fps | UHD 2160p | 4K утолит желание каждого киномана, каталог постоянно пополняется только лучшими релизами. У нас представлена огромная коллекция как недавно вышедших новинок, так и давно полюбившихся бестселлеров. Для того, чтобы получить файл, вам стоит лишь перейти на вкладку искомого материала и скачать нужный торрент и подождать, пока программа перенесет полнометражную картину на компьютер. Главная страница послужит путеводителем и афишей, где можно за несколько минут найти необходимое. Первый русский свободный торрент сделан с максимальным комфортом для пользователя, не нужно тратить время на изучение интерфейса. Желаем вам приятного просмотра! Постоянное обновление и пополнение - новинками популярных игр, новый и безопасный софт, мультимедиа кпк Свободный торрент трекер.