Не вместе / Untogether (2018) WEB-DLRip-AVC от OlLanDGroup | iTunes скачать торрент

Вы посетили страницу нашего torrent трекера и теперь имеете возможность скачать бесплатно через торрент Не вместе / Untogether (2018) WEB-DLRip-AVC от OlLanDGroup | iTunes в хорошем качестве. Только лучшие релизы, на свободном torrent трекере.

Все раздачи мультитрекерные, даже при нуле сидов, можно качать на максимальной скорости. Скорость скачивания без ограничений !!!

DL-List and Torrent activity [Update пиров]
Size:  1.76 GB   |    Registered:  2 months 29 days   |    Completed:  4 times
Seeders:  1  [  0 KB/s  ]   Show peers in full details
 
   
 
 
 

leerik ®

Gender:
Unknown
Longevity:
3 years
Posts:
9627

Не вместе / Untogether
-

Год выпуска: 2018
Страна: США
Производство: Redwire Pictures, Sterling Road Films, Ambassador Film Group
Жанр: Драма-Режиссёр: Эмма Форрест
В ролях: Элис Ив, Джейми Дорнан, Бен Мендельсон, Дженнифер Грей, Билли Кристал, Джемайма Кёрк, Скотт Каан, Лола Кёрк, Джули МакКалло, Аманда Ри-Перевод: Профессиональный многоголосый | [iTunes]
Субтитры: Русские (полные), Английские (полные)
Реклама: Отсутствует
Описание: Бывшая девочка-вундеркинд Андреа пытается написать большой роман в перерывах между наркотическим опьянением. Она сближается с уже состоявшимся писателем Ником, который прославился благодаря своим мемуарам о военной службе.
-Качество: WEB-DLRip-AVC | iTunes Version |
Продолжительность: 01:38:42
Формат: MKV
Видео кодек: MPEG-4 AVC
Аудио кодек: AC3
Видео: 1024x424 (2.40:1), 23,976 fps, x264 ~1 783 kbps avg, 0.171 bit/pixel
Аудио #1: 48 kHz, AC3 Dolby Digital, 3/2 (L,C,R,l,r) + LFE ch, ~384.00 kbps avg | RUS (iTunes)
Аудио #2: 48 kHz, AC3 Dolby Digital, 3/2 (L,C,R,l,r) + LFE ch, ~384.00 kbps avg | ENG-Дата премьеры (мир): 23 апреля 2018
Дата премьеры (РФ):
Цифровой релиз:

MediaInfo

Общее
Уникальный идентификатор : 90752095079086968849232455770692240885 (0x444637BDFF25C475FAD6E4D813BDC5F5)
Полное имя : F:Untogether.2018.WEB-DLRip(AVC)..mkv
Формат : Matroska
Версия формата : Version 4 / Version 2
Размер файла : 1,76 Гбайт
Продолжительность : 1 ч. 38 м.
Общий поток : 2553 Кбит/сек
Название фильма : Untogether.2018 #TorpedoUK#
Дата кодирования : UTC 2019-07-15 16:28:11
Программа кодирования : mkvmerge v29.0.0 (#039;Like It Or Not#039;) 64-bit
Библиотека кодирования : libebml v1.3.6 + libmatroska v1.4.9
Видео
Идентификатор : 1
Формат : AVC
Формат/Информация : Advanced Video Codec
Профиль формата : [email protected]
Параметр CABAC формата : Да
Параметр ReFrames формата : 10 кадров
Идентификатор кодека : V_MPEG4/ISO/AVC
Продолжительность : 1 ч. 38 м.
Битрейт : 1783 Кбит/сек
Ширина : 1024 пикселя
Высота : 424 пикселя
Соотношение сторон : 2,40:1
Режим частоты кадров : Постоянный
Частота кадров : 23,976 (24000/1001) кадра/сек
Цветовое пространство : YUV
Субдискретизация насыщенности : 4:2:0
Битовая глубина : 8 бит
Тип развёртки : Прогрессивная
Бит/(Пиксели*Кадры) : 0.171
Размер потока : 1,23 Гбайт (70%)
Библиотека кодирования : x264 core 146 r2538 121396c
Настройки программы : cabac=1 / ref=10 / deblock=1:-3:-3 / analyse=0x3:0x113 / me=umh / subme=11 / psy=1 / psy_rd=1.00:0.03 / mixed_ref=1 / me_range=48 / chroma_me=1 / trellis=2 / 8x8dct=1 / cqm=0 / deadzone=21,11 / fast_pskip=1 / chroma_qp_offset=-3 / threads=6 / lookahead_threads=1 / sliced_threads=0 / nr=0 / decimate=1 / interlaced=0 / bluray_compat=0 / constrained_intra=0 / bframes=11 / b_pyramid=2 / b_adapt=2 / b_bias=0 / direct=3 / weightb=1 / open_gop=0 / weightp=2 / keyint=240 / keyint_min=23 / scenecut=40 / intra_refresh=0 / rc_lookahead=40 / rc=2pass / mbtree=0 / bitrate=1783 / ratetol=1.0 / qcomp=0.60 / qpmin=0 / qpmax=69 / qpstep=4 / cplxblur=20.0 / qblur=0.5 / vbv_maxrate=50000 / vbv_bufsize=62500 / nal_hrd=none / filler=0 / ip_ratio=1.40 / pb_ratio=1.30 / aq=1:1.00
Язык : English
Default : Да
Forced : Нет
Аудио #1
Идентификатор : 2
Формат : AC-3
Формат/Информация : Audio Coding 3
Расширение режима : CM (complete main)
Параметр Endianness формата : Big
Идентификатор кодека : A_AC3
Продолжительность : 1 ч. 38 м.
Вид битрейта : Постоянный
Битрейт : 384 Кбит/сек
Каналы : 6 каналов
Расположение каналов : Front: L C R, Side: L R, LFE
Частота : 48,0 КГц
Частота кадров : 31,250 кадров/сек (1536 spf)
Битовая глубина : 16 бит
Метод сжатия : С потерями
Размер потока : 271 Мбайт (15%)
Заголовок : [DUB] DD 5.1 @ 384 kbps (iTunes)
Язык : Russian
Default : Да
Forced : Нет
Аудио #2
Идентификатор : 3
Формат : AC-3
Формат/Информация : Audio Coding 3
Расширение режима : CM (complete main)
Параметр Endianness формата : Big
Идентификатор кодека : A_AC3
Продолжительность : 1 ч. 38 м.
Вид битрейта : Постоянный
Битрейт : 384 Кбит/сек
Каналы : 6 каналов
Расположение каналов : Front: L C R, Side: L R, LFE
Частота : 48,0 КГц
Частота кадров : 31,250 кадров/сек (1536 spf)
Битовая глубина : 16 бит
Метод сжатия : С потерями
Размер потока : 271 Мбайт (15%)
Заголовок : [ORIGINAL] DD 5.1 @ 384 kbps (iTunes)
Язык : English
Default : Нет
Forced : Нет
Текст #1
Идентификатор : 4
Формат : UTF-8
Идентификатор кодека : S_TEXT/UTF8
Идентификатор кодека/Информация : UTF-8 Plain Text
Продолжительность : 1 ч. 38 м.
Битрейт : 81 бит/сек
Count of elements : 1169
Размер потока : 58,8 Кбайт (0%)
Заголовок : Full-length
Язык : Russian
Default : Нет
Forced : Нет
Текст #2
Идентификатор : 5
Формат : UTF-8
Идентификатор кодека : S_TEXT/UTF8
Идентификатор кодека/Информация : UTF-8 Plain Text
Продолжительность : 1 ч. 31 м.
Битрейт : 57 бит/сек
Count of elements : 1161
Размер потока : 38,5 Кбайт (0%)
Заголовок : Full-length
Язык : English
Default : Нет
Forced : Нет
Меню
00:00:00.000 : en:1
00:05:37.128 : en:2
00:11:10.711 : en:3
00:19:06.895 : en:4
00:25:26.441 : en:5
00:29:27.181 : en:6
00:36:39.780 : en:7
00:41:08.340 : en:8
00:49:22.292 : en:9
00:54:10.663 : en:10
00:57:13.012 : en:11
01:05:50.571 : en:12
01:12:12.786 : en:13
01:18:57.690 : en:14
01:23:16.490 : en:15
01:31:35.405 : en:16

Скриншоты




[fromtorrents.com].t65015.torrent 
Torrent: Registered [ 2019-07-15 22:50 ] · 24582BE15E6D7C57E891EE7A556EECB62C6C24E9

Download .torrent

19 KB

Status: checked
Completed: 4 times
Size: 1.76 GB
Rate: 
(Vote: 0)
Have thanked: 0  Thanks

Скачать через торрент Не вместе / Untogether (2018) WEB-DLRip-AVC от OlLanDGroup | iTunes в хорошем качестве бесплатно


terms.php
Display posts:    

Current time is: 14-Oct 03:02

All times are UTC + 4



You cannot post new topics in this forum
You cannot reply to topics in this forum
You cannot edit your posts in this forum
You cannot delete your posts in this forum
You cannot vote in polls in this forum
You cannot attach files in this forum
You can download files in this forum

Скачать через торрент фильмы 4K Ultra HD 2160p бесплатно, на первом свободном torrent трекере без надоедливой рекламы. Качаем без ограничений, рейтингов и прочих трудностей. Ищите любимый сериал, у нас вы найдёте множество сериалов, фильмов, игр, музыки. Скачать торрентом не составит труда даже не опытному пользователю. Все торрент файлы доступны к скачиванию любому пользователю бесплатно. Переходи на freetorrent и качай по полной без регистрации и ограничений. И не забудьте поделиться ссылкой на наш сайт - мы будем очень благодарны. Это даёт нам сил и заряда для жизни проекта.

Ежедневно в мир выходит столько новых картин, что уследить за всеми просто не представляется возможным. На нашем крупнейшем русскоязычном торрент трекере вы сможете без труда скачать фильмы 4к через торрент бесплатно новинки фильмов, не проходя утомительную регистрацию с подтверждением в смс, без назойливой рекламы и перехода по подозрительным ссылкам, все желаемые файлы находятся в открытом доступе и доступны к загрузке без начисления рейтинга. Скачать новинки выгодно не только в финансовом плане, любую загруженную киноленту можно посмотреть в удобное время и в высоком качестве. Самая лучшая подборка кино фильмов 60 fps | UHD 2160p | 4K утолит желание каждого киномана, каталог постоянно пополняется только лучшими релизами. У нас представлена огромная коллекция как недавно вышедших новинок, так и давно полюбившихся бестселлеров. Для того, чтобы получить файл, вам стоит лишь перейти на вкладку искомого материала и скачать нужный торрент и подождать, пока программа перенесет полнометражную картину на компьютер. Главная страница послужит путеводителем и афишей, где можно за несколько минут найти необходимое. Первый русский свободный торрент сделан с максимальным комфортом для пользователя, не нужно тратить время на изучение интерфейса. Желаем вам приятного просмотра! Постоянное обновление и пополнение - новинками популярных игр, новый и безопасный софт, мультимедиа кпк Свободный торрент трекер.