Беглый огонь / Rapid Fire (1992) BDRip 720p | D, Р, А скачать торрент

Вы посетили страницу нашего torrent трекера и теперь имеете возможность скачать бесплатно через торрент Беглый огонь / Rapid Fire (1992) BDRip 720p | D, Р, А в хорошем качестве. Только лучшие релизы, на свободном torrent трекере.

Все раздачи мультитрекерные, даже при нуле сидов, можно качать на максимальной скорости. Скорость скачивания без ограничений !!!

DL-List and Torrent activity [Update пиров]
Size:  15.2 GB   |    Registered:  3 months 2 days   |    Completed:  4 times

Seeder not seen: 1 hour 2 minutes

 
   
 
 
 

rico ®

Gender:
Male
Longevity:
3 years 1 month
Posts:
4988

Страна: США
Жанр: боевик, триллер, драма, криминал
Год выпуска: 1992
Продолжительность: 01:35:12-Перевод 1: Профессиональный (дублированный) Киностудия им. Горького
Перевод 2: Профессиональный (многоголосый закадровый) R5
Перевод 3: Профессиональный (многоголосый закадровый) Первый канал
Перевод 4: Авторский (одноголосый закадровый) А. Гаврилов-поздний
Перевод 5: Авторский (одноголосый закадровый) К. Толмачев
Перевод 6: Авторский (одноголосый закадровый) А. Гаврилов-ранний
Перевод 7: Авторский (одноголосый закадровый) М. Загот
Субтитры: русские, английские
Оригинальная аудиодорожка: английский-Режиссер: Дуайт Х. Литтл / Dwight H. Little-В ролях: Брэндон Ли, Пауэрс Бут, Ник Манкузо, Рэймонд Дж. Бэрри, Кейт Ходж, Ци Ма, Тони Лонго, Майкл Пол Чан, Дастин Нгуен, Бриджитта Штенберг-Описание: Студент-байкер Джейк Ло становится свидетелем жестокого убийства. Не думая о том, кто стоит за спиной убийц, он соглашается свидетельствовать в суде, и тут же чьи-то люди под видом агентов ФБР пытаются убрать его. Едва ускользнув от лже-агентов, Джейк оказывается в центре ураганной схватки за его голову.
ФБР, наркобароны, друзья, враги — все смешалось, и неизвестно, кто несет смерть, а кто — помощь. Здесь могут спасти только инстинкты. И инстинкт подсказывает, что единственный, кому можно верить — офицер полиции Райан. Но единственное, что может предложить Райан — сыграть подсадную утку в его охоте.-

: by Атлас31
Тип релиза: BDRip 720p
Контейнер: MKV
Источник: Rapid Fire 1992 1080p Blu-ray AVC DTS-HD MA 2.0-watchHD
Видео: 1280x696 at 23.976 fps, MPEG-4 AVC, ~16800 Кbps avg
Аудио#1: Russian: 48 kHz, AC3, 2/0 (L,R) ch, ~192 kbps avg |Дубляж, Киностудия им. Горького|
Аудио#2: Russian: 48 kHz, AC3, 2/0 (L,R) ch, ~192 kbps avg |Многоголосый закадровый, R5|
Аудио#3: Russian: 48 kHz, AC3, 2/0 (L,R) ch, ~192 kbps avg |Многоголосый закадровый, Первый канал|
Аудио#4: Russian: 48 kHz/24-bit, DTS, 2/0 (L,R) ch, ~1509 kbps avg |Одноголосый закадровый, А. Гаврилов-поздний|
Аудио#5: Russian: 48 kHz/24-bit, DTS, 2/0 (L,R) ch, ~1509 kbps avg |Одноголосый закадровый, К. Толмачев|
Аудио#6: Russian: 48 kHz, AC3, 2/0 (L,R) ch, ~192 kbps avg |Одноголосый закадровый, А. Гаврилов-ранний|
Аудио#7: Russian: 48 kHz, AC3, 2/0 (L,R) ch, ~192 kbps avg |Одноголосый закадровый, М. Загот|
Аудио#8: Ukrainian: 48 kHz, AC3, 2/0 (L,R) ch, ~192 kbps avg |Многоголосый закадровый, ICTV|
Аудио#9: Ukrainian: 48 kHz, AC3, 2/0 (L,R) ch, ~192 kbps avg |Двухголосый закадровый, 2+2|
Аудио#10: English: 48 kHz/24-bit, DTS, 2/0 (L,R) ch, ~1509 kbps avg
Аудио#11: English: 48 kHz, AC3, 2/0 (L,R) ch, ~192 kbps avg |Commentary by composer Christopher Young and film historian Nick Redman|

log x264

x264 info: frame I:870 Avg QP:15.28 size:191097
x264 info: frame P:29795 Avg QP:17.33 size:108368
x264 info: frame B:106304 Avg QP:18.72 size: 80864
x264 info: consecutive B-frames: 2.2% 3.2% 11.3% 9.9% 13.2% 51.4% 4.4% 1.2% 1.0% 1.3% 0.8%

MediaInfo

General
Unique ID : 193264738052493599183662434784719533049 (0x91656F43517A179BA3D302008BEDF3F9)
Complete name : F:ФильмыRapid.Fire.1992.720p.BluRay.7xRus.2xUkr.2xEng.-Атлас31.mkv
Format : Matroska
Format version : Version 2
File size : 15.2 GiB
Duration : 1h 35mn
Overall bit rate : 22.9 Mbps
Movie name : Rapid Fire (1992)
Encoded date : UTC 2019-07-08 15:26:32
Writing application : mkvmerge v6.9.1 (#039;Blue Panther#039;) 32bit built on Apr 18 2014 18:15:44
Writing library : libebml v1.3.0 + libmatroska v1.4.1
Video
ID : 1
Format : AVC
Format/Info : Advanced Video Codec
Format profile : [email protected]
Format settings, CABAC : Yes
Format settings, ReFrames : 9 frames
Codec ID : V_MPEG4/ISO/AVC
Duration : 1h 35mn
Bit rate : 16.8 Mbps
Width : 1 280 pixels
Height : 696 pixels
Display aspect ratio : 1.85:1
Frame rate mode : Constant
Frame rate : 23.976 fps
Color space : YUV
Chroma subsampling : 4:2:0
Bit depth : 8 bits
Scan type : Progressive
Bits/(Pixel*Frame) : 0.787
Stream size : 10.9 GiB (71%)
Title : Release for by Атлас31
Writing library : x264 core 148 r2665M a01e339
Encoding settings : cabac=1 / ref=9 / deblock=1:-3:-3 / analyse=0x3:0x133 / me=umh / subme=11 / psy=1 / psy_rd=1.00:0.15 / mixed_ref=1 / me_range=32 / chroma_me=1 / trellis=2 / 8x8dct=1 / cqm=0 / deadzone=21,11 / fast_pskip=1 / chroma_qp_offset=-3 / threads=3 / lookahead_threads=1 / sliced_threads=0 / nr=0 / decimate=1 / interlaced=0 / bluray_compat=0 / constrained_intra=0 / bframes=10 / b_pyramid=2 / b_adapt=2 / b_bias=0 / direct=3 / weightb=1 / open_gop=0 / weightp=2 / keyint=230 / keyint_min=23 / scenecut=40 / intra_refresh=0 / rc_lookahead=60 / rc=2pass / mbtree=1 / bitrate=16800 / ratetol=1.0 / qcomp=0.60 / qpmin=0 / qpmax=69 / qpstep=4 / cplxblur=20.0 / qblur=0.5 / ip_ratio=1.40 / aq=1:1.00
Language : English
Default : Yes
Forced : No
Audio #1
ID : 2
Format : AC-3
Format/Info : Audio Coding 3
Mode extension : CM (complete main)
Format settings, Endianness : Big
Codec ID : A_AC3
Duration : 1h 35mn
Bit rate mode : Constant
Bit rate : 192 Kbps
Channel(s) : 2 channels
Channel positions : Front: L R
Sampling rate : 48.0 KHz
Bit depth : 16 bits
Compression mode : Lossy
Stream size : 131 MiB (1%)
Title : Dub (Киностудия им. Горького)
Language : Russian
Default : Yes
Forced : No
Audio #2
ID : 3
Format : AC-3
Format/Info : Audio Coding 3
Mode extension : CM (complete main)
Format settings, Endianness : Big
Codec ID : A_AC3
Duration : 1h 35mn
Bit rate mode : Constant
Bit rate : 192 Kbps
Channel(s) : 2 channels
Channel positions : Front: L R
Sampling rate : 48.0 KHz
Bit depth : 16 bits
Compression mode : Lossy
Stream size : 131 MiB (1%)
Title : MVO (R5)
Language : Russian
Default : No
Forced : No
Audio #3
ID : 4
Format : AC-3
Format/Info : Audio Coding 3
Mode extension : CM (complete main)
Format settings, Endianness : Big
Codec ID : A_AC3
Duration : 1h 35mn
Bit rate mode : Constant
Bit rate : 192 Kbps
Channel(s) : 2 channels
Channel positions : Front: L R
Sampling rate : 48.0 KHz
Bit depth : 16 bits
Compression mode : Lossy
Stream size : 131 MiB (1%)
Title : MVO (Первый канал)
Language : Russian
Default : No
Forced : No
Audio #4
ID : 5
Format : DTS
Format/Info : Digital Theater Systems
Mode : 16
Format settings, Endianness : Big
Codec ID : A_DTS
Duration : 1h 35mn
Bit rate mode : Constant
Bit rate : 1 509 Kbps
Channel(s) : 2 channels
Channel positions : Front: L R
Sampling rate : 48.0 KHz
Bit depth : 24 bits
Compression mode : Lossy
Stream size : 1.00 GiB (7%)
Title : AVO (А. Гаврилов, поздний)
Language : Russian
Default : No
Forced : No
Audio #5
ID : 6
Format : DTS
Format/Info : Digital Theater Systems
Mode : 16
Format settings, Endianness : Big
Codec ID : A_DTS
Duration : 1h 35mn
Bit rate mode : Constant
Bit rate : 1 509 Kbps
Channel(s) : 2 channels
Channel positions : Front: L R
Sampling rate : 48.0 KHz
Bit depth : 24 bits
Compression mode : Lossy
Stream size : 1.00 GiB (7%)
Title : AVO (К. Толмачев)
Language : Russian
Default : No
Forced : No
Audio #6
ID : 7
Format : AC-3
Format/Info : Audio Coding 3
Mode extension : CM (complete main)
Format settings, Endianness : Big
Codec ID : A_AC3
Duration : 1h 35mn
Bit rate mode : Constant
Bit rate : 192 Kbps
Channel(s) : 2 channels
Channel positions : Front: L R
Sampling rate : 48.0 KHz
Bit depth : 16 bits
Compression mode : Lossy
Stream size : 131 MiB (1%)
Title : AVO (А. Гаврилов, ранний)
Language : Russian
Default : No
Forced : No
Audio #7
ID : 8
Format : AC-3
Format/Info : Audio Coding 3
Mode extension : CM (complete main)
Format settings, Endianness : Big
Codec ID : A_AC3
Duration : 1h 35mn
Bit rate mode : Constant
Bit rate : 192 Kbps
Channel(s) : 2 channels
Channel positions : Front: L R
Sampling rate : 48.0 KHz
Bit depth : 16 bits
Compression mode : Lossy
Stream size : 131 MiB (1%)
Title : AVO (М. Загот)
Language : Russian
Default : No
Forced : No
Audio #8
ID : 9
Format : AC-3
Format/Info : Audio Coding 3
Mode extension : CM (complete main)
Format settings, Endianness : Big
Codec ID : A_AC3
Duration : 1h 35mn
Bit rate mode : Constant
Bit rate : 192 Kbps
Channel(s) : 2 channels
Channel positions : Front: L R
Sampling rate : 48.0 KHz
Bit depth : 16 bits
Compression mode : Lossy
Stream size : 131 MiB (1%)
Title : MVO (ICTV)
Language : Ukrainian
Default : No
Forced : No
Audio #9
ID : 10
Format : AC-3
Format/Info : Audio Coding 3
Mode extension : CM (complete main)
Format settings, Endianness : Big
Codec ID : A_AC3
Duration : 1h 35mn
Bit rate mode : Constant
Bit rate : 192 Kbps
Channel(s) : 2 channels
Channel positions : Front: L R
Sampling rate : 48.0 KHz
Bit depth : 16 bits
Compression mode : Lossy
Stream size : 131 MiB (1%)
Title : DVO (2+2)
Language : Ukrainian
Default : No
Forced : No
Audio #10
ID : 11
Format : DTS
Format/Info : Digital Theater Systems
Mode : 16
Format settings, Endianness : Big
Codec ID : A_DTS
Duration : 1h 35mn
Bit rate mode : Constant
Bit rate : 1 509 Kbps
Channel(s) : 2 channels
Channel positions : Front: L R
Sampling rate : 48.0 KHz
Bit depth : 24 bits
Compression mode : Lossy
Stream size : 1.00 GiB (7%)
Title : Original
Language : English
Default : No
Forced : No
Audio #11
ID : 12
Format : AC-3
Format/Info : Audio Coding 3
Mode extension : CM (complete main)
Format settings, Endianness : Big
Codec ID : A_AC3
Duration : 1h 35mn
Bit rate mode : Constant
Bit rate : 192 Kbps
Channel(s) : 2 channels
Channel positions : Front: L R
Sampling rate : 48.0 KHz
Bit depth : 16 bits
Compression mode : Lossy
Stream size : 131 MiB (1%)
Title : Commentary by composer Christopher Young and film historian Nick Redman
Language : English
Default : No
Forced : No
Text #1
ID : 13
Format : UTF-8
Codec ID : S_TEXT/UTF8
Codec ID/Info : UTF-8 Plain Text
Title : Full
Language : Russian
Default : No
Forced : No
Text #2
ID : 14
Format : UTF-8
Codec ID : S_TEXT/UTF8
Codec ID/Info : UTF-8 Plain Text
Title : Full
Language : English
Default : No
Forced : No
Text #3
ID : 15
Format : UTF-8
Codec ID : S_TEXT/UTF8
Codec ID/Info : UTF-8 Plain Text
Title : SDH
Language : English
Default : No
Forced : No
Text #4
ID : 16
Format : UTF-8
Codec ID : S_TEXT/UTF8
Codec ID/Info : UTF-8 Plain Text
Title : SDH Colored
Language : English
Default : No
Forced : No
Menu
00:00:00.000 : en:Main Titles: Serrano#039;s Arrival
00:03:51.982 : en:Push Comes to Shove
00:07:57.477 : en:The Rally; Jake#039;s Flashback
00:11:59.093 : en:Life Study
00:15:47.613 : en:Date and Switch
00:20:51.792 : en:Massacre at the Meeting
00:24:02.733 : en:Escape and Arrest
00:26:50.901 : en:Prize Witness
00:31:42.025 : en:Chicago: Ryan, Farris and Withers
00:37:58.610 : en:No Safehouse
00:39:36.207 : en:Who Do You Trust?
00:43:45.456 : en:Dropping in on Frank
00:47:26.927 : en:The Set-up
00:50:03.751 : en:A Talk with Withers
00:55:01.048 : en:The Delivery
01:00:34.881 : en:Nice Doin#039; Business with Ya
01:03:10.704 : en:Aftermath
01:07:32.048 : en:Love and Death
01:11:23.362 : en:Jake Undercover
01:15:33.070 : en:Captured; Jake to the Rescue
01:20:46.759 : en:A Worthy Adversary
01:23:49.900 : en:Tau#039;s Escape
01:27:22.404 : en:Battle on the Tracks
01:30:50.570 : en:Going After Ryan

Скриншоты


Сравнение скриншотов

HDTVRip 720p vs BDRip 720p





[fromtorrents.com].t64833.torrent 
Torrent: Registered [ 2019-07-12 02:20 ] · DEFAE12A6164C4E4E214863520543687AE5C442F

Download .torrent

39 KB

Status: checked
Completed: 4 times
Size: 15.2 GB
Rate: 
(Vote: 0)
Have thanked: 0  Thanks

Скачать через торрент Беглый огонь / Rapid Fire (1992) BDRip 720p | D, Р, А в хорошем качестве бесплатно


terms.php
Display posts:    

Current time is: 14-Oct 02:57

All times are UTC + 4



You cannot post new topics in this forum
You cannot reply to topics in this forum
You cannot edit your posts in this forum
You cannot delete your posts in this forum
You cannot vote in polls in this forum
You cannot attach files in this forum
You can download files in this forum

Скачать через торрент фильмы 4K Ultra HD 2160p бесплатно, на первом свободном torrent трекере без надоедливой рекламы. Качаем без ограничений, рейтингов и прочих трудностей. Ищите любимый сериал, у нас вы найдёте множество сериалов, фильмов, игр, музыки. Скачать торрентом не составит труда даже не опытному пользователю. Все торрент файлы доступны к скачиванию любому пользователю бесплатно. Переходи на freetorrent и качай по полной без регистрации и ограничений. И не забудьте поделиться ссылкой на наш сайт - мы будем очень благодарны. Это даёт нам сил и заряда для жизни проекта.

Ежедневно в мир выходит столько новых картин, что уследить за всеми просто не представляется возможным. На нашем крупнейшем русскоязычном торрент трекере вы сможете без труда скачать фильмы 4к через торрент бесплатно новинки фильмов, не проходя утомительную регистрацию с подтверждением в смс, без назойливой рекламы и перехода по подозрительным ссылкам, все желаемые файлы находятся в открытом доступе и доступны к загрузке без начисления рейтинга. Скачать новинки выгодно не только в финансовом плане, любую загруженную киноленту можно посмотреть в удобное время и в высоком качестве. Самая лучшая подборка кино фильмов 60 fps | UHD 2160p | 4K утолит желание каждого киномана, каталог постоянно пополняется только лучшими релизами. У нас представлена огромная коллекция как недавно вышедших новинок, так и давно полюбившихся бестселлеров. Для того, чтобы получить файл, вам стоит лишь перейти на вкладку искомого материала и скачать нужный торрент и подождать, пока программа перенесет полнометражную картину на компьютер. Главная страница послужит путеводителем и афишей, где можно за несколько минут найти необходимое. Первый русский свободный торрент сделан с максимальным комфортом для пользователя, не нужно тратить время на изучение интерфейса. Желаем вам приятного просмотра! Постоянное обновление и пополнение - новинками популярных игр, новый и безопасный софт, мультимедиа кпк Свободный торрент трекер.