Развратная жизнь Жерара Флока / La vie dissolue de Gérard Floque (1987) BDRemux 1080р | P скачать торрент

Вы посетили страницу нашего torrent трекера и теперь имеете возможность скачать бесплатно через торрент Развратная жизнь Жерара Флока / La vie dissolue de Gérard Floque (1987) BDRemux 1080р | P в хорошем качестве. Только лучшие релизы, на свободном torrent трекере.

Все раздачи мультитрекерные, даже при нуле сидов, можно качать на максимальной скорости. Скорость скачивания без ограничений !!!

DL-List and Torrent activity [Update пиров]
Size:  21.88 GB   |    Registered:  3 months 2 days   |    Completed:  7 times

Seeder not seen: 1 month 27 days

 
   
 
 
 

briqada ®

Gender:
Unknown
Longevity:
2 years 9 months
Posts:
3091


Информация о фильме
Название: Развратная жизнь Жерара Флока
Оригинальное название: La vie dissolue de Gérard Floque
Год выхода: 1987
Жанр: комедия
Режиссер: Жорж Лотнер
В ролях: Ролан Жиро, Мари-Анн Шазель, Клементин Селарье, Жаклин Майян, Жерар Ринальди, Матильда Мэй, Соня Лассо, Ингрид Люриен, Митсу и др.
Описание: Жерар Флок пережил самый ужасный день в своей жизни: его уволили с работы, его дочь арестована за торговлю наркотиками, а жену он застал в постели с известным телеведущим. Он начал жизнь заново и после всех злоключений все же нашел счастье… В лице своей бывшей секретарши Мартины.

Страна: Франция
Продолжительность: 01:21:30
Перевод: профессиональный (многоголосый закадровый) т.к. Россия
Cубтитры: французские (SDH)
Оригинальная аудиодорожка: французский
Файл
Качество: BDRemux 1080р
Видео: MPEG-4 AVC Video / 36805 kbps / 1080p / 23.976 fps / 16:9 / High Profile 4.1
Аудио 1: Russian / AC-3 / 2.0 / 48 kHz / 192 kbps / т.к. Россия
Аудио 2: French / DTS-HD Master Audio / 2.0 / 48 kHz / 1411 kbps / 24-bit (DTS Core: 2.0 / 48 kHz / 768 kbps / 24-bit)

MediaInfo

General
Unique ID : 234567346710392851058829047450079278739 (0xB078071761492DFDA02E76E4DE733693)
Complete name : La.vie.dissolue.de.Gérard.Floque.1987.1080p.BluRay.Remux.AVC.DTS-HD.MA.2.0.mkv
Format : Matroska
Format version : Version 4 / Version 2
File size : 21.9 GiB
Duration : 1 h 21 min
Overall bit rate mode : Variable
Overall bit rate : 38.4 Mb/s
Movie name : La vie dissolue de Gérard Floque
Encoded date : UTC 2019-07-10 14:58:44
Writing application : mkvmerge v35.0.0 (#039;All The Love In The World#039;) 32-bit
Writing library : libebml v1.3.9 + libmatroska v1.5.2
Video
ID : 1
Format : AVC
Format/Info : Advanced Video Codec
Format profile : [email protected]
Format settings, CABAC : Yes
Format settings, RefFrames : 3 frames
Codec ID : V_MPEG4/ISO/AVC
Duration : 1 h 21 min
Bit rate mode : Variable
Bit rate : 37.0 Mb/s
Maximum bit rate : 39.0 Mb/s
Width : 1 920 pixels
Height : 1 080 pixels
Display aspect ratio : 16:9
Frame rate mode : Constant
Frame rate : 23.976 (24000/1001) FPS
Color space : YUV
Chroma subsampling : 4:2:0
Bit depth : 8 bits
Scan type : Progressive
Bits/(Pixel*Frame) : 0.744
Stream size : 21.0 GiB (96%)
Writing library : x264 core 146 r2538 121396c
Encoding settings : cabac=1 / ref=4 / deblock=1:-1:-1 / analyse=0x3:0x133 / me=umh / subme=10 / psy=1 / psy_rd=1.00:0.15 / mixed_ref=1 / me_range=24 / chroma_me=1 / trellis=2 / 8x8dct=1 / cqm=0 / deadzone=21,11 / fast_pskip=1 / chroma_qp_offset=-3 / threads=48 / lookahead_threads=4 / sliced_threads=0 / slices=4 / nr=0 / decimate=1 / interlaced=0 / bluray_compat=1 / constrained_intra=0 / bframes=3 / b_pyramid=1 / b_adapt=2 / b_bias=0 / direct=3 / weightb=1 / open_gop=1 / weightp=1 / keyint=24 / keyint_min=1 / scenecut=40 / intra_refresh=0 / rc_lookahead=24 / rc=2pass / mbtree=1 / bitrate=37000 / ratetol=1.0 / qcomp=0.60 / qpmin=0 / qpmax=69 / qpstep=4 / cplxblur=20.0 / qblur=0.5 / vbv_maxrate=39000 / vbv_bufsize=30000 / nal_hrd=vbr / filler=0 / ip_ratio=1.40 / aq=1:1.00
Language : French
Default : Yes
Forced : No
Color range : Limited
Color primaries : BT.709
Transfer characteristics : BT.709
Matrix coefficients : BT.709
Audio #1
ID : 2
Format : AC-3
Format/Info : Audio Coding 3
Format settings, Endianness : Big
Codec ID : A_AC3
Duration : 1 h 21 min
Bit rate mode : Constant
Bit rate : 192 kb/s
Channel(s) : 2 channels
Channel positions : Front: L R
Sampling rate : 48.0 kHz
Frame rate : 31.250 FPS (1536 SPF)
Bit depth : 16 bits
Compression mode : Lossy
Stream size : 112 MiB (0%)
Title : т.к. Россия
Language : Russian
Service kind : Complete Main
Default : Yes
Forced : No
Audio #2
ID : 3
Format : DTS
Format/Info : Digital Theater Systems
Format profile : MA / Core
Mode : 16
Format settings, Endianness : Big
Codec ID : A_DTS
Duration : 1 h 21 min
Bit rate mode : Variable / Constant
Bit rate : 1 411.2 kb/s / 768 kb/s
Channel(s) : 2 channels
Channel positions : Front: L R
Sampling rate : 48.0 kHz
Frame rate : 93.750 FPS (512 SPF)
Bit depth : 24 bits
Compression mode : Lossless / Lossy
Stream size : 806 MiB (4%)
Language : French
Default : No
Forced : No
Text
ID : 4
Format : PGS
Codec ID : S_HDMV/PGS
Codec ID/Info : Picture based subtitle format used on BDs/HD-DVDs
Duration : 1 h 21 min
Bit rate : 41.8 kb/s
Count of elements : 2856
Stream size : 24.3 MiB (0%)
Title : SDH
Language : French
Default : No
Forced : No
Menu
00:00:00.000 : :Chapitre 01
00:08:35.723 : :Chapitre 02
00:15:55.371 : :Chapitre 03
00:21:25.659 : :Chapitre 04
00:27:34.653 : :Chapitre 05
00:36:25.558 : :Chapitre 06
00:45:42.489 : :Chapitre 07
00:51:54.194 : :Chapitre 08
00:58:28.421 : :Chapitre 09
01:09:47.850 : :Chapitre 10
01:17:43.241 : :Chapitre 11
01:19:31.767 : :Chapitre 12

[fromtorrents.com].t64821.torrent 
Torrent: Registered [ 2019-07-12 00:50 ] · 5AACF008CAA13C5C2D5F89166C34A119A064F4F1

Download .torrent

56 KB

Status: checked
Completed: 7 times
Size: 21.88 GB
Rate: 
(Vote: 0)
Have thanked: 0  Thanks

Скачать через торрент Развратная жизнь Жерара Флока / La vie dissolue de Gérard Floque (1987) BDRemux 1080р | P в хорошем качестве бесплатно


terms.php
Display posts:    

Current time is: 14-Oct 02:50

All times are UTC + 4



You cannot post new topics in this forum
You cannot reply to topics in this forum
You cannot edit your posts in this forum
You cannot delete your posts in this forum
You cannot vote in polls in this forum
You cannot attach files in this forum
You can download files in this forum

Скачать через торрент фильмы 4K Ultra HD 2160p бесплатно, на первом свободном torrent трекере без надоедливой рекламы. Качаем без ограничений, рейтингов и прочих трудностей. Ищите любимый сериал, у нас вы найдёте множество сериалов, фильмов, игр, музыки. Скачать торрентом не составит труда даже не опытному пользователю. Все торрент файлы доступны к скачиванию любому пользователю бесплатно. Переходи на freetorrent и качай по полной без регистрации и ограничений. И не забудьте поделиться ссылкой на наш сайт - мы будем очень благодарны. Это даёт нам сил и заряда для жизни проекта.

Ежедневно в мир выходит столько новых картин, что уследить за всеми просто не представляется возможным. На нашем крупнейшем русскоязычном торрент трекере вы сможете без труда скачать фильмы 4к через торрент бесплатно новинки фильмов, не проходя утомительную регистрацию с подтверждением в смс, без назойливой рекламы и перехода по подозрительным ссылкам, все желаемые файлы находятся в открытом доступе и доступны к загрузке без начисления рейтинга. Скачать новинки выгодно не только в финансовом плане, любую загруженную киноленту можно посмотреть в удобное время и в высоком качестве. Самая лучшая подборка кино фильмов 60 fps | UHD 2160p | 4K утолит желание каждого киномана, каталог постоянно пополняется только лучшими релизами. У нас представлена огромная коллекция как недавно вышедших новинок, так и давно полюбившихся бестселлеров. Для того, чтобы получить файл, вам стоит лишь перейти на вкладку искомого материала и скачать нужный торрент и подождать, пока программа перенесет полнометражную картину на компьютер. Главная страница послужит путеводителем и афишей, где можно за несколько минут найти необходимое. Первый русский свободный торрент сделан с максимальным комфортом для пользователя, не нужно тратить время на изучение интерфейса. Желаем вам приятного просмотра! Постоянное обновление и пополнение - новинками популярных игр, новый и безопасный софт, мультимедиа кпк Свободный торрент трекер.