Гость на свадьбе / The Wedding Guest (2018) WEB-DLRip | iTunes скачать торрент

Вы посетили страницу нашего torrent трекера и теперь имеете возможность скачать бесплатно через торрент Гость на свадьбе / The Wedding Guest (2018) WEB-DLRip | iTunes в хорошем качестве. Только лучшие релизы, на свободном torrent трекере.

Все раздачи мультитрекерные, даже при нуле сидов, можно качать на максимальной скорости. Скорость скачивания без ограничений !!!

DL-List and Torrent activity [Update пиров]
Size:  1.46 GB   |    Registered:  9 days   |    Completed:  1 times
Seeders:  39  [  0 KB/s  ]   Leechers:  2  [  0 KB/s  ]   Show peers in full details
 
   
 
 

leerik ®

Gender:
Unknown
Longevity:
2 years 9 months
Posts:
8581


Гость на свадьбе / The Wedding Guest
Страна: Великобритания
Производство: Riverstone Pictures, Revolution Films, Ingenious Media
Год выпуска: 2018
Жанр: триллер
Продолжительность: 01:36:28
Режиссер: Майкл Уинтерботтом
В ролях: Дев Патель, Радхика Апте, Джим Сарбх, Ниш Натвани, Хэриш Ханна
Описание: Точно спланированная операция, призванная спасти девушку от нежелательной свадьбы, оборачивается гонкой на перегонки со временем, где каждый неверный шаг может стоит жизни...

Перевод: Профессиональный (многоголосый, закадровый) | iTunes
Субтитры: нет-Качество: WEB-DLRip
Формат: AVI
Видео кодек: XviD
Аудио кодек: АС3
Видео: 704x288 (2.40:1), 23.976 fps, XviD build 73 ~1 768 kbps avg
Аудио: 48.0 kHz, AC3 Dolby Digital, 3/2 (L,C,R,l,r) + LFE ch, ~384 kbps
Дата премьеры (мир): 8 сентября 2018

: порошков

Media Info

General
Формат : AVI
Формат/Информация : Audio Video Interleave
Размер файла : 1,46 Гбайт
Продолжительность : 1 ч. 36 м.
Общий поток : 2161 Кбит/сек
Название фильма : Гость на свадьбе_2018_WEB-DLRip
Программа кодирования : VirtualDubMod 1.5.10.3 | (build 2550/release)
Авторское право : порошков
Видео
Идентификатор : 0
Формат : MPEG-4 Visual
Профиль формата : Advanced [email protected]
Настройки формата : BVOP1 / Custom Matrix
Параметр BVOP формата : 1
Параметр QPel формата : Нет
Параметр GMC формата : Без точки перехода
Параметр матрицы формата : Выборочная
Идентификатор кодека : XVID
Идентификатор кодека/Подсказка : XviD
Продолжительность : 1 ч. 36 м.
Битрейт : 1768 Кбит/сек
Ширина : 704 пикселя
Высота : 288 пикселей
Соотношение сторон : 2,40:1
Частота кадров : 23,976 (24000/1001) кадра/сек
Цветовое пространство : YUV
Субдискретизация насыщенности : 4:2:0
Битовая глубина : 8 бит
Тип развёртки : Прогрессивная
Метод сжатия : С потерями
Бит/(Пиксели*Кадры) : 0.364
Размер потока : 1,19 Гбайт (82%)
Библиотека кодирования : XviD 73
Аудио
Идентификатор : 1
Формат : AC-3
Формат/Информация : Audio Coding 3
Коммерческое название : Dolby Digital
Идентификатор кодека : 2000
Продолжительность : 1 ч. 36 м.
Вид битрейта : Постоянный
Битрейт : 384 Кбит/сек
Каналы : 6 каналов
ChannelLayout : L R C LFE Ls Rs
Частота : 48,0 КГц
Частота кадров : 31,250 кадров/сек (1536 SPF)
Битовая глубина : 16 бит
Метод сжатия : С потерями
Размер потока : 265 Мбайт (18%)
Выравнивание : Разделение по промежуткам
Продолжительность промежутка : 42 мс. (1,00 видеокадр)
Время предзагрузки промежутка : 500 мс.

Скриншоты


[fromtorrents.com].t64774.torrent 
Torrent: Registered [ 2019-07-10 15:30 ] · B2DF0933021F30D4E380E875716C845B34AA1724

Download .torrent

16 KB

Status: checked
Completed: 1 times
Size: 1.46 GB
Rate: 
(Vote: 0)
Have thanked: 0  Thanks

Скачать через торрент Гость на свадьбе / The Wedding Guest (2018) WEB-DLRip | iTunes в хорошем качестве бесплатно


terms.php
Display posts:    

Current time is: 20-Jul 03:42

All times are UTC + 4



You cannot post new topics in this forum
You cannot reply to topics in this forum
You cannot edit your posts in this forum
You cannot delete your posts in this forum
You cannot vote in polls in this forum
You cannot attach files in this forum
You can download files in this forum

Скачать через торрент фильмы 4K Ultra HD 2160p бесплатно, на первом свободном torrent трекере без надоедливой рекламы. Качаем без ограничений, рейтингов и прочих трудностей. Ищите любимый сериал, у нас вы найдёте множество сериалов, фильмов, игр, музыки. Скачать торрентом не составит труда даже не опытному пользователю. Все торрент файлы доступны к скачиванию любому пользователю бесплатно. Переходи на freetorrent и качай по полной без регистрации и ограничений. И не забудьте поделиться ссылкой на наш сайт - мы будем очень благодарны. Это даёт нам сил и заряда для жизни проекта.

Ежедневно в мир выходит столько новых картин, что уследить за всеми просто не представляется возможным. На нашем крупнейшем русскоязычном торрент трекере вы сможете без труда скачать фильмы 4к через торрент бесплатно новинки фильмов, не проходя утомительную регистрацию с подтверждением в смс, без назойливой рекламы и перехода по подозрительным ссылкам, все желаемые файлы находятся в открытом доступе и доступны к загрузке без начисления рейтинга. Скачать новинки выгодно не только в финансовом плане, любую загруженную киноленту можно посмотреть в удобное время и в высоком качестве. Самая лучшая подборка кино фильмов 60 fps | UHD 2160p | 4K утолит желание каждого киномана, каталог постоянно пополняется только лучшими релизами. У нас представлена огромная коллекция как недавно вышедших новинок, так и давно полюбившихся бестселлеров. Для того, чтобы получить файл, вам стоит лишь перейти на вкладку искомого материала и скачать нужный торрент и подождать, пока программа перенесет полнометражную картину на компьютер. Главная страница послужит путеводителем и афишей, где можно за несколько минут найти необходимое. Первый русский свободный торрент сделан с максимальным комфортом для пользователя, не нужно тратить время на изучение интерфейса. Желаем вам приятного просмотра! Постоянное обновление и пополнение - новинками популярных игр, новый и безопасный софт, мультимедиа кпк Свободный торрент трекер.