Форсаж 4 / Fast & Furious (2009) UHD BDRip-HEVC 2160p | 4K | HDR | D, P, A скачать торрент

Вы посетили страницу нашего torrent трекера и теперь имеете возможность скачать бесплатно через торрент Форсаж 4 / Fast & Furious (2009) UHD BDRip-HEVC 2160p | 4K | HDR | D, P, A в хорошем качестве. Только лучшие релизы, на свободном torrent трекере.

 

timon ®

Gender:
Male
Longevity:
2 years 9 months
Posts:
1834


Информация о фильме
Название: Форсаж 4
Оригинальное название: Fast Furious
Год выхода: 2009
Жанр: Криминал, боевик, триллер, драма
Режиссер: Джастин Лин
В ролях: Вин Дизель, Пол Уокер, Джордана Брюстер, Галь Гадот, Джон Ортис, Лас Алонсо, Мишель Родригес, Джек Конли, Шей Уигэм, Лиза Лапира
О фильме:
Когда кривая дорожка заставляет скрывающегося от правосудия Дома Торетто вернуться в Лос-Анджелес, вражда с агентом Брайаном О’Коннером вспыхивает с новой силой. Но у парочки обнаруживается общий противник, и Дому с Брайаном приходится заключить перемирие в надежде одержать над ним победу. Грабя конвои, роя подкопы и пересекая границы, они приходят к идеальной форме отмщения — педали газа, вдавленной до упора.

Страна: США
Студия: Neal H. Moritz Productions, One Race Productions, Original Film, Relativity Media, Universal Pictures
Продолжительность: 01:46:47
Перевод: Дублированный (Лицензия BD EUR), профессиональный (многоголосый, закадровый), авторский (одноголосый, закадровый)
Субтитры: Русские (forced, full), украинские (forced), английские (SDH)
KirDan | BlueBird
Качество: UHD BDRip 2160p (HDR)
Видео: H.265/HEVC, 3840x1600, (2.40:1), ~23.5 Mbps, 23.976 fps
Аудио 1: DTS, 6 ch, 768 Kbps - Русский (BD EUR)
Аудио 2: AC3, 6 ch, 448 Kbps - Русский (AVO, А. Гаврилов)
Аудио 3: AC3, 6 ch, 448 Kbps - Русский (AVO, Д. Есарев)
Аудио 4: AC3, 6 ch, 448 Kbps - Русский (AVO, Ю. Немахов)
Аудио 5: AC3, 2 ch, 192 Kbps - Украинский (MVO, ТРК Україна)
Аудио 6: DTS, 6 ch, 1509 Kbps - Английский (оригинальный)

MediaInfo:

General
Unique ID : 233046977238933227356411144190217294489 (0xAF533716C7944902376208C5554E1299)
Complete name : S:FAST_4_2009_UHD-BDRip_HDR_BT2020_x265_2160p.mkv
Format : Matroska
Format version : Version 4
File size : 20.4 GiB
Duration : 1 h 46 min
Overall bit rate : 27.3 Mb/s
Movie name : Fast Furious (2009) UHD-BDRip HDR BT2020 x265 2160P -BLUEBIRD
Encoded date : UTC 2019-06-23 20:25:37
Writing application : mkvmerge v35.0.0 (#039;All The Love In The World#039;) 64-bit
Writing library : libebml v1.3.9 + libmatroska v1.5.2
Video
ID : 1
Format : HEVC
Format/Info : High Efficiency Video Coding
Format profile : Main [email protected]@High
HDR format : SMPTE ST 2086, HDR10 compatible
Codec ID : V_MPEGH/ISO/HEVC
Duration : 1 h 46 min
Bit rate : 23.5 Mb/s
Width : 3 840 pixels
Height : 1 600 pixels
Display aspect ratio : 2.40:1
Frame rate mode : Constant
Frame rate : 23.976 (24000/1001) FPS
Color space : YUV
Chroma subsampling : 4:2:0 (Type 2)
Bit depth : 10 bits
Bits/(Pixel*Frame) : 0.160
Stream size : 17.5 GiB (86%)
Title : Fast Furious (2009) UHD-BDRip HDR BT2020 x265 2160P -KirDan
Writing library : x265 3.0_Au+32-a46ded2c1411:[Windows][GCC 9.1.0][64 bit] 10bit
Encoding settings : cpuid=1111039 / frame-threads=4 / numa-pools=16,16,16,16 / wpp / no-pmode / pme / no-psnr / no-ssim / log-level=2 / input-csp=1 / input-res=3840x1600 / interlace=0 / total-frames=153615 / level-idc=51 / high-tier=1 / uhd-bd=0 / ref=5 / no-allow-non-conformance / repeat-headers / annexb / aud / no-hrd / info / hash=0 / no-temporal-layers / no-open-gop / min-keyint=23 / keyint=250 / gop-lookahead=0 / bframes=9 / b-adapt=2 / b-pyramid / bframe-bias=0 / rc-lookahead=72 / lookahead-slices=6 / scenecut=40 / radl=0 / no-splice / no-intra-refresh / ctu=64 / min-cu-size=8 / no-rect / no-amp / max-tu-size=32 / tu-inter-depth=1 / tu-intra-depth=1 / limit-tu=0 / rdoq-level=2 / dynamic-rd=1.00 / no-ssim-rd / signhide / no-tskip / nr-intra=0 / nr-inter=0 / no-constrained-intra / no-strong-intra-smoothing / max-merge=3 / limit-refs=1 / limit-modes / me=3 / subme=7 / merange=57 / temporal-mvp / weightp / no-weightb / no-analyze-src-pics / deblock=-3:-3 / no-sao / no-sao-non-deblock / rd=4 / early-skip / no-rskip / no-fast-intra / no-tskip-fast / cu-lossless / b-intra / no-splitrd-skip / rdpenalty=2 / psy-rd=1.90 / psy-rdoq=1.80 / no-rd-refine / no-lossless / cbqpoffs=0 / crqpoffs=0 / rc=crf / crf=17.4 / qcomp=0.60 / qpstep=3 / stats-write=0 / stats-read=0 / vbv-maxrate=160000 / vbv-bufsize=160000 / vbv-init=0.9 / crf-max=0.0 / crf-min=0.0 / ipratio=1.30 / pbratio=1.10 / aq-mode=3 / aq-strength=0.70 / cutree / zone-count=0 / no-strict-cbr / qg-size=32 / rc-grain / qpmax=69 / qpmin=0 / const-vbv / sar=1 / overscan=0 / videoformat=5 / range=0 / colorprim=9 / transfer=16 / colormatrix=9 / chromaloc=1 / chromaloc-top=2 / chromaloc-bottom=2 / display-window=0 / master-display=G(13250,34500)B(7500,3000)R(34000,16000)WP(15635,16450)L(10000000,50)cll=997,242 / min-luma=0 / max-luma=1023 / log2-max-poc-lsb=8 / vui-timing-info / vui-hrd-info / slices=1 / no-opt-qp-pps / no-opt-ref-list-length-pps / no-multi-pass-opt-rps / scenecut-bias=0.05 / no-opt-cu-delta-qp / no-aq-motion / hdr / hdr-opt / no-dhdr10-opt / no-idr-recovery-sei / analysis-reuse-level=5 / scale-factor=0 / refine-intra=0 / refine-inter=0 / refine-mv=0 / refine-ctu-distortion=0 / no-limit-sao / ctu-info=0 / no-lowpass-dct / refine-analysis-type=0 / copy-pic=1 / max-ausize-factor=1.0 / no-dynamic-refine / no-single-sei / no-hevc-aq / no-svt / no-field / qp-adaptation-range=1.00
Language : English
Default : Yes
Forced : No
Color range : Limited
Color primaries : BT.2020
Transfer characteristics : PQ
Matrix coefficients : BT.2020 non-constant
Mastering display color pri : Display P3
Mastering display luminance : min: 0.0050 cd/m2, max: 1000 cd/m2
Maximum Content Light Level : 997 cd/m2
Maximum Frame-Average Light : 242 cd/m2
Audio #1
ID : 2
Format : DTS
Format/Info : Digital Theater Systems
Codec ID : A_DTS
Duration : 1 h 46 min
Bit rate mode : Constant
Bit rate : 768 kb/s
Channel(s) : 6 channels
Channel layout : C L R Ls Rs LFE
Sampling rate : 48.0 kHz
Frame rate : 93.750 FPS (512 SPF)
Bit depth : 24 bits
Compression mode : Lossy
Stream size : 587 MiB (3%)
Title : BD UHD
Language : Russian
Default : Yes
Forced : No
Audio #2
ID : 3
Format : AC-3
Format/Info : Audio Coding 3
Commercial name : Dolby Digital
Codec ID : A_AC3
Duration : 1 h 46 min
Bit rate mode : Constant
Bit rate : 448 kb/s
Channel(s) : 6 channels
Channel layout : L R C LFE Ls Rs
Sampling rate : 48.0 kHz
Frame rate : 31.250 FPS (1536 SPF)
Bit depth : 16 bits
Compression mode : Lossy
Stream size : 342 MiB (2%)
Title : VO A.Gavrilov
Language : Russian
Service kind : Complete Main
Default : No
Forced : No
Audio #3
ID : 4
Format : AC-3
Format/Info : Audio Coding 3
Commercial name : Dolby Digital
Codec ID : A_AC3
Duration : 1 h 46 min
Bit rate mode : Constant
Bit rate : 448 kb/s
Channel(s) : 6 channels
Channel layout : L R C LFE Ls Rs
Sampling rate : 48.0 kHz
Frame rate : 31.250 FPS (1536 SPF)
Bit depth : 16 bits
Compression mode : Lossy
Stream size : 342 MiB (2%)
Title : VO D.Esarev
Language : Russian
Service kind : Complete Main
Default : No
Forced : No
Audio #4
ID : 5
Format : AC-3
Format/Info : Audio Coding 3
Commercial name : Dolby Digital
Codec ID : A_AC3
Duration : 1 h 46 min
Bit rate mode : Constant
Bit rate : 448 kb/s
Channel(s) : 6 channels
Channel layout : L R C LFE Ls Rs
Sampling rate : 48.0 kHz
Frame rate : 31.250 FPS (1536 SPF)
Bit depth : 16 bits
Compression mode : Lossy
Stream size : 342 MiB (2%)
Title : VO J.Nemakhov
Language : Russian
Service kind : Complete Main
Default : No
Forced : No
Audio #5
ID : 6
Format : AC-3
Format/Info : Audio Coding 3
Commercial name : Dolby Digital
Codec ID : A_AC3
Duration : 1 h 46 min
Bit rate mode : Constant
Bit rate : 192 kb/s
Channel(s) : 2 channels
Channel layout : L R
Sampling rate : 48.0 kHz
Frame rate : 31.250 FPS (1536 SPF)
Bit depth : 16 bits
Compression mode : Lossy
Stream size : 147 MiB (1%)
Title : MVO Україна
Language : Ukrainian
Service kind : Complete Main
Default : No
Forced : No
Audio #6
ID : 7
Format : DTS
Format/Info : Digital Theater Systems
Codec ID : A_DTS
Duration : 1 h 46 min
Bit rate mode : Constant
Bit rate : 1 509 kb/s
Channel(s) : 6 channels
Channel layout : C L R Ls Rs LFE
Sampling rate : 48.0 kHz
Frame rate : 93.750 FPS (512 SPF)
Bit depth : 24 bits
Compression mode : Lossy
Stream size : 1.13 GiB (6%)
Title : core
Language : English
Default : No
Forced : No
Text #1
ID : 8
Format : UTF-8
Codec ID : S_TEXT/UTF8
Codec ID/Info : UTF-8 Plain Text
Duration : 1 h 29 min
Bit rate : 1 b/s
Count of elements : 17
Stream size : 1.04 KiB (0%)
Title : forced
Language : Russian
Default : Yes
Forced : Yes
Text #2
ID : 9
Format : UTF-8
Codec ID : S_TEXT/UTF8
Codec ID/Info : UTF-8 Plain Text
Duration : 1 h 37 min
Bit rate : 53 b/s
Count of elements : 827
Stream size : 38.2 KiB (0%)
Title : full
Language : Russian
Default : No
Forced : No
Text #3
ID : 10
Format : UTF-8
Codec ID : S_TEXT/UTF8
Codec ID/Info : UTF-8 Plain Text
Duration : 1 h 39 min
Bit rate : 1 b/s
Count of elements : 24
Stream size : 1.28 KiB (0%)
Title : forced
Language : Ukrainian
Default : No
Forced : No
Text #4
ID : 11
Format : UTF-8
Codec ID : S_TEXT/UTF8
Codec ID/Info : UTF-8 Plain Text
Duration : 1 h 38 min
Bit rate : 40 b/s
Count of elements : 987
Stream size : 29.2 KiB (0%)
Title : SDH
Language : English
Default : No
Forced : No
Menu
00:00:00.000 : :Chapter 01
00:07:26.571 : :Chapter 02
00:11:44.745 : :Chapter 03
00:16:46.797 : :Chapter 04
00:24:24.129 : :Chapter 05
00:29:05.493 : :Chapter 06
00:34:05.334 : :Chapter 07
00:37:30.831 : :Chapter 08
00:46:07.389 : :Chapter 09
00:53:37.422 : :Chapter 10
00:58:15.200 : :Chapter 11
01:04:49.260 : :Chapter 12
01:07:29.920 : :Chapter 13
01:12:01.900 : :Chapter 14
01:14:46.565 : :Chapter 15
01:20:36.206 : :Chapter 16
01:25:03.306 : :Chapter 17
01:29:09.427 : :Chapter 18
01:35:55.040 : :Chapter 19
01:39:25.000 : :Chapter 20

Скриншоты

Download

Для того, чтобы

Форсаж 4 / Fast & Furious (2009) UHD BDRip-HEVC 2160p | 4K | HDR | D, P, A

с нашего сайта, Вам необходимо Войти на сайт под своим логином! Если у Вас ещё нет логина, тогда Вам нужно сначала:




How to Download? · What is a torrent? · Ratings and Limitations

Display posts:    

Current time is: 20-Jul 03:40

All times are UTC + 4



You cannot post new topics in this forum
You cannot reply to topics in this forum
You cannot edit your posts in this forum
You cannot delete your posts in this forum
You cannot vote in polls in this forum
You cannot attach files in this forum
You cannot download files in this forum

Скачать через торрент фильмы 4K Ultra HD 2160p бесплатно, на первом свободном torrent трекере без надоедливой рекламы. Качаем без ограничений, рейтингов и прочих трудностей. Ищите любимый сериал, у нас вы найдёте множество сериалов, фильмов, игр, музыки. Скачать торрентом не составит труда даже не опытному пользователю. Все торрент файлы доступны к скачиванию любому пользователю бесплатно. Переходи на freetorrent и качай по полной без регистрации и ограничений. И не забудьте поделиться ссылкой на наш сайт - мы будем очень благодарны. Это даёт нам сил и заряда для жизни проекта.

Ежедневно в мир выходит столько новых картин, что уследить за всеми просто не представляется возможным. На нашем крупнейшем русскоязычном торрент трекере вы сможете без труда скачать фильмы 4к через торрент бесплатно новинки фильмов, не проходя утомительную регистрацию с подтверждением в смс, без назойливой рекламы и перехода по подозрительным ссылкам, все желаемые файлы находятся в открытом доступе и доступны к загрузке без начисления рейтинга. Скачать новинки выгодно не только в финансовом плане, любую загруженную киноленту можно посмотреть в удобное время и в высоком качестве. Самая лучшая подборка кино фильмов 60 fps | UHD 2160p | 4K утолит желание каждого киномана, каталог постоянно пополняется только лучшими релизами. У нас представлена огромная коллекция как недавно вышедших новинок, так и давно полюбившихся бестселлеров. Для того, чтобы получить файл, вам стоит лишь перейти на вкладку искомого материала и скачать нужный торрент и подождать, пока программа перенесет полнометражную картину на компьютер. Главная страница послужит путеводителем и афишей, где можно за несколько минут найти необходимое. Первый русский свободный торрент сделан с максимальным комфортом для пользователя, не нужно тратить время на изучение интерфейса. Желаем вам приятного просмотра! Постоянное обновление и пополнение - новинками популярных игр, новый и безопасный софт, мультимедиа кпк Свободный торрент трекер.