Смертельная битва / Mortal Kombat (1995) BDRip 720p | Jaskier скачать торрент

Вы посетили страницу нашего torrent трекера и теперь имеете возможность скачать бесплатно через торрент Смертельная битва / Mortal Kombat (1995) BDRip 720p | Jaskier в хорошем качестве. Только лучшие релизы, на свободном torrent трекере.

Все раздачи мультитрекерные, даже при нуле сидов, можно качать на максимальной скорости. Скорость скачивания без ограничений !!!

DL-List and Torrent activity [Update пиров]
Size:  6.5 GB   |    Registered:  2 months 1 day   |    Completed:  1 times
Seeders:  3  [  0 KB/s  ]   Show peers in full details
 
   
 
 

rico ®

Gender:
Male
Longevity:
2 years 10 months
Posts:
3802


Информация о фильме
Название: Смертельная битва
Оригинальное название: Mortal Kombat
Год выхода: 1995
Жанр: фантастика, фэнтези, боевик, триллер, приключения
Режиссер: Пол У. С. Андерсон
В ролях: Робин Шоу, Линден Эшби, Бриджит Уилсон, Кристофер Ламберт, Кэри-Хироюки Тагава, Талиса Сото, Тревор Годдар, Крис Касамасса, Франсуа Пети, Кит Кук
О фильме:
Несколько столетий назад Шанг Тсунг — маг из потустороннего мира захватил в свои руки древний воинский турнир. Его цель — ввергнуть наш мир в хаос. Чтобы спасти человечество от гибели, троим воинам предстоит битва… смертельная битва с силами мрака.

Страна: США
Студия: New Line Cinema
Продолжительность: 01:41:26
Перевод: Профессиональный (многоголосый, закадровый) Jaskier
Файл
Формат: MKV
Качество: BDRip 720p
Видео: MPEG-4 AVC, 6847 kb/s, 1280x720
Аудио: Russian: AC3, 640 kb/s (6 ch) / English: DTS, 1509 kb/s (6 ch)
Субтитры: отсутствуют
***Примечание: Без рекламы.

MI

Общее
Уникальный идентификатор : 171517644394955543354257549091329061917 (0x810918C3801FB33C9E99AF090D8CB41D)
Полное имя : H:JASKiERMortal.Kombat.1995.BDRip.720p.Jaskier.mkv
Формат : Matroska
Версия формата : Version 2
Размер файла : 6,50 Гбайт
Продолжительность : 1 ч. 41 м.
Общий поток : 9179 Кбит/сек
Дата кодирования : UTC 2019-05-14 18:26:02
Программа кодирования : mkvmerge v7.8.0 (#039;River Man#039;) 32bit built on Apr 3 2015 12:11:22
Библиотека кодирования : libebml v1.3.1 + libmatroska v1.4.2
Видео
Идентификатор : 1
Формат : AVC
Формат/Информация : Advanced Video Codec
Профиль формата : [email protected]
Настройки формата : CABAC / 9 Ref Frames
Параметр CABAC формата : Да
Параметр RefFrames формата : 9 кадров
Идентификатор кодека : V_MPEG4/ISO/AVC
Продолжительность : 1 ч. 41 м.
Битрейт : 6847 Кбит/сек
Ширина : 1280 пикселей
Высота : 720 пикселей
Соотношение сторон : 16:9
Режим частоты кадров : Постоянный
Частота кадров : 23,976 (24000/1001) кадра/сек
Цветовое пространство : YUV
Субдискретизация насыщенности : 4:2:0
Битовая глубина : 8 бит
Тип развёртки : Прогрессивная
Бит/(Пиксели*Кадры) : 0.310
Размер потока : 4,85 Гбайт (75%)
Библиотека кодирования : x264 core 148 r2692 64f4e24
Настройки программы : cabac=1 / ref=9 / deblock=1:-3:-3 / analyse=0x3:0x133 / me=tesa / subme=11 / psy=1 / psy_rd=1.00:0.00 / mixed_ref=1 / me_range=24 / chroma_me=1 / trellis=2 / 8x8dct=1 / cqm=0 / deadzone=21,11 / fast_pskip=0 / chroma_qp_offset=-2 / threads=12 / lookahead_threads=2 / sliced_threads=0 / nr=0 / decimate=1 / interlaced=0 / bluray_compat=0 / constrained_intra=0 / bframes=9 / b_pyramid=2 / b_adapt=2 / b_bias=0 / direct=3 / weightb=1 / open_gop=0 / weightp=2 / keyint=250 / keyint_min=23 / scenecut=40 / intra_refresh=0 / rc_lookahead=60 / rc=crf / mbtree=1 / crf=16.2 / qcomp=0.60 / qpmin=0 / qpmax=69 / qpstep=4 / ip_ratio=1.40 / aq=2:1.00
Язык : English
Default : Да
Forced : Нет
Аудио #1
Идентификатор : 2
Формат : AC-3
Формат/Информация : Audio Coding 3
Коммерческое название : Dolby Digital
Идентификатор кодека : A_AC3
Продолжительность : 1 ч. 41 м.
Вид битрейта : Постоянный
Битрейт : 640 Кбит/сек
Каналы : 6 каналов
Channel layout : L R C LFE Ls Rs
Частота : 48,0 КГц
Частота кадров : 31,250 кадров/сек (1536 SPF)
Битовая глубина : 16 бит
Метод сжатия : С потерями
Размер потока : 464 Мбайт (7%)
Заголовок : Jaskier
Язык : Russian
Default : Да
Forced : Нет
Аудио #2
Идентификатор : 3
Формат : DTS
Формат/Информация : Digital Theater Systems
Идентификатор кодека : A_DTS
Продолжительность : 1 ч. 41 м.
Вид битрейта : Постоянный
Битрейт : 1509 Кбит/сек
Каналы : 6 каналов
Channel layout : C L R Ls Rs LFE
Частота : 48,0 КГц
Частота кадров : 93,750 кадра/сек (512 SPF)
Битовая глубина : 24 бит
Метод сжатия : С потерями
Размер потока : 1,07 Гбайт (16%)
Язык : English
Default : Нет
Forced : Нет
Меню
00:00:00.000 : en:Main Title
00:00:50.133 : en:quot;Your Brother#039;s Soul is Minequot;
00:02:39.284 : en:Sonya Blade
00:04:50.415 : en:Johny Cage
00:07:56.893 : en:The Temple of Light, China
00:12:10.354 : en:Chai Wan Bay, Hong Kong
00:15:35.935 : en:Scorpian and Sub-Zero
00:18:15.219 : en:The Chosen One
00:21:30.372 : en:Arrival on the Island
00:25:00.832 : en:A Taste of Things to Come
00:29:01.030 : en:Kano and the Prince
00:36:24.557 : en:Dumb and Ugly
00:39:41.670 : en:The Tournament
00:42:41.850 : en:Something for Sonya
00:45:38.527 : en:Johnny#039;s Turn
00:50:59.473 : en:Tip from the Princess
00:52:52.252 : en:The Element Which Brings Life
00:56:08.281 : en:Goro#039;s Fury
01:00:15.028 : en:The Fear Inside
01:05:48.653 : en:Johnny vs. Goro
01:09:06.016 : en:The Abduction of Sonya
01:10:51.956 : en:Into Outworld
01:17:09.666 : en:The Black Tower
01:20:50.470 : en:Liu vs. Shang Tsung
01:23:53.987 : en:quot;Face Your Worst Fearquot;
01:30:26.629 : en:The Emperor
01:31:34.864 : en:End Credits

Скриншоты


[fromtorrents.com].t60933.torrent 
Torrent: Registered [ 2019-05-15 18:50 ] · E5C386882AB261AB30C5DFDCF674EB9D67EED41C

Download .torrent

131 KB

Status: checked
Completed: 1 times
Size: 6.5 GB
Rate: 
(Vote: 0)
Have thanked: 0  Thanks

Скачать через торрент Смертельная битва / Mortal Kombat (1995) BDRip 720p | Jaskier в хорошем качестве бесплатно


terms.php
Display posts:    

Current time is: 17-Jul 03:25

All times are UTC + 4



You cannot post new topics in this forum
You cannot reply to topics in this forum
You cannot edit your posts in this forum
You cannot delete your posts in this forum
You cannot vote in polls in this forum
You cannot attach files in this forum
You can download files in this forum

Скачать через торрент фильмы 4K Ultra HD 2160p бесплатно, на первом свободном torrent трекере без надоедливой рекламы. Качаем без ограничений, рейтингов и прочих трудностей. Ищите любимый сериал, у нас вы найдёте множество сериалов, фильмов, игр, музыки. Скачать торрентом не составит труда даже не опытному пользователю. Все торрент файлы доступны к скачиванию любому пользователю бесплатно. Переходи на freetorrent и качай по полной без регистрации и ограничений. И не забудьте поделиться ссылкой на наш сайт - мы будем очень благодарны. Это даёт нам сил и заряда для жизни проекта.

Ежедневно в мир выходит столько новых картин, что уследить за всеми просто не представляется возможным. На нашем крупнейшем русскоязычном торрент трекере вы сможете без труда скачать фильмы 4к через торрент бесплатно новинки фильмов, не проходя утомительную регистрацию с подтверждением в смс, без назойливой рекламы и перехода по подозрительным ссылкам, все желаемые файлы находятся в открытом доступе и доступны к загрузке без начисления рейтинга. Скачать новинки выгодно не только в финансовом плане, любую загруженную киноленту можно посмотреть в удобное время и в высоком качестве. Самая лучшая подборка кино фильмов 60 fps | UHD 2160p | 4K утолит желание каждого киномана, каталог постоянно пополняется только лучшими релизами. У нас представлена огромная коллекция как недавно вышедших новинок, так и давно полюбившихся бестселлеров. Для того, чтобы получить файл, вам стоит лишь перейти на вкладку искомого материала и скачать нужный торрент и подождать, пока программа перенесет полнометражную картину на компьютер. Главная страница послужит путеводителем и афишей, где можно за несколько минут найти необходимое. Первый русский свободный торрент сделан с максимальным комфортом для пользователя, не нужно тратить время на изучение интерфейса. Желаем вам приятного просмотра! Постоянное обновление и пополнение - новинками популярных игр, новый и безопасный софт, мультимедиа кпк Свободный торрент трекер.