Тайна дома с часами / The House with a Clock in Its Walls (2018) UHD BDRemux 2160p | 4K | HDR | D скачать торрент

Вы посетили страницу нашего torrent трекера и теперь имеете возможность скачать бесплатно через торрент Тайна дома с часами / The House with a Clock in Its Walls (2018) UHD BDRemux 2160p | 4K | HDR | D в хорошем качестве. Только лучшие релизы, на свободном torrent трекере.

 

Glix ®

Gender:
Male
Longevity:
2 years 10 months
Posts:
1736

Информация о фильме
Название: Тайна дома с часами
Оригинальное название: The House with a Clock in Its Walls
Год выхода: 2018
Жанр: фэнтези, ужасы, триллер, комедия, детектив, семейный
Режиссер: Элай Рот
В ролях: Джек Блэк, Кейт Бланшетт, Оуэн Ваккаро, Кайл МакЛахлан, Рене Голдсберри, Коллин Кэмп, Санни Сулджик, Лоренца Иззо, Брэкстон Бьеркен, Ванесса Энн Уильямс
О сериале:
Первое, что услышал Льюис, ступив на порог загадочного особняка своего дяди, — это тиканье часов, раздававшееся из древних стен. Он окунается в мир магии и колдовства, о существовании которого даже не подозревал. Здесь оживают картины, обитают невероятные создания, а сердце дома хранит тайну времени.

Страна: США, Индия, Канада
Студия: DreamWorks, Amblin Entertainment, Mythology Entertainment
Продолжительность: 01:45:03
Перевод: Дубляж [Студия Пифагор]
Файл
Кодек: HVC1
Качество: BDRemux 2160p (HDR)
Видео: HEVC HDR, ~ 55.8 Mбит/с, 3840x2160, 23.976 кадр/с
Звук:
Русский (AC3, 6 ch, 384 Кбит/с) / Дублированный [Пифагор]
Английский (TrueHD, 8 ch, 4274 Кбит/с)
Субтитры:
Aнглийские (SDH, PGS)

MI

General
Format : Matroska
Format version : Version 4 / Version 2
File size : 44.4 GiB
Duration : 1 h 45 min
Overall bit rate mode : Variable
Overall bit rate : 60.5 Mb/s
Encoded date : UTC 2019-01-08 10:43:30
Writing application : mkvmerge v30.1.0 ('Forever And More') 64-bit
Writing library : libebml v1.3.6 + libmatroska v1.4.9
Video
ID : 1
Format : HEVC
Format/Info : High Efficiency Video Coding
Format profile : Main [email protected]@High
Codec ID : V_MPEGH/ISO/HEVC
Duration : 1 h 45 min
Bit rate : 55.8 Mb/s
Width : 3 840 pixels
Height : 2 160 pixels
Display aspect ratio : 16:9
Frame rate mode : Constant
Frame rate : 23.976 (24000/1001) FPS
Color space : YUV
Chroma subsampling : 4:2:0 (Type 2)
Bit depth : 10 bits
Bits/(Pixel*Frame) : 0.281
Stream size : 40.9 GiB (92%)
Writing library : ATEME Titan File 3.8.16 (4.8.16.0)
Default : Yes
Forced : No
Color range : Limited
Color primaries : BT.2020
Transfer characteristics : SMPTE ST 2084
Matrix coefficients : BT.2020 non-constant
Mastering display color primar : R: x=0.680000 y=0.320000, G: x=0.265000 y=0.690000, B: x=0.150000 y=0.060000, White point: x=0.312700 y=0.329000
Mastering display luminance : min: 0.0050 cd/m2, max: 1000.0000 cd/m2
Maximum Content Light Level : 1000 cd/m2
Maximum Frame-Average Light Le : 155 cd/m2
Audio #1
ID : 2
Format : TrueHD
Format profile : TrueHD+Atmos / TrueHD
Codec ID : A_TRUEHD
Duration : 1 h 45 min
Bit rate mode : Variable
Bit rate : 4 274 kb/s
Maximum bit rate : 7 884 kb/s
Channel(s) : Object Based / 8 channels
Channel positions : Object Based / Front: L C R, Side: L R, Back: L R, LFE
Sampling rate : / 48.0 kHz
Frame rate : 1 200.000 FPS (40 SPF)
Compression mode : Lossless
Delay relative to video : 32 ms
Stream size : 3.14 GiB (7%)
Title : English.TrueHD.7.1.Atmos
Language : English
Default : No
Forced : No
Audio #2
ID : 5
Format : AC-3
Format/Info : Audio Coding 3
Format settings, Endianness : Big
Codec ID : A_AC3
Duration : 1 h 45 min
Bit rate mode : Constant
Bit rate : 384 kb/s
Channel(s) : 6 channels
Channel positions : Front: L C R, Side: L R, LFE
Sampling rate : 48.0 kHz
Frame rate : 31.250 FPS (1536 SPF)
Bit depth : 16 bits
Compression mode : Lossy
Delay relative to video : -1 ms
Stream size : 289 MiB (1%)
Title : Дублированный [Пифагор].5.1
Language : Russian
Service kind : Complete Main
Default : Yes
Forced : No
Text #1
ID : 3
Format : UTF-8
Codec ID : S_TEXT/UTF8
Codec ID/Info : UTF-8 Plain Text
Duration : 1 h 37 min
Bit rate : 54 b/s
Count of elements : 1280
Stream size : 39.2 KiB (0%)
Title : English-SDH-SRT
Language : English
Default : No
Forced : No
Text #2
ID : 4
Format : PGS
Muxing mode : zlib
Codec ID : S_HDMV/PGS
Codec ID/Info : Picture based subtitle format used on BDs/HD-DVDs
Duration : 1 h 39 min
Bit rate : 45.1 kb/s
Count of elements : 3258
Stream size : 32.0 MiB (0%)
Title : English-PGS
Language : English
Default : No
Forced : No
Menu
00:00:00.000 : :Chapter 1
00:05:32.707 : :Chapter 2
00:11:59.635 : :Chapter 3
00:16:41.792 : :Chapter 4
00:22:41.985 : :Chapter 5
00:27:43.536 : :Chapter 6
00:31:11.494 : :Chapter 7
00:34:58.346 : :Chapter 8
00:39:05.843 : :Chapter 9
00:44:35.422 : :Chapter 10
00:49:56.034 : :Chapter 11
00:53:44.221 : :Chapter 12
00:58:07.734 : :Chapter 13
01:05:02.064 : :Chapter 14
01:11:44.842 : :Chapter 15
01:15:59.638 : :Chapter 16
01:21:33.805 : :Chapter 17
01:26:39.986 : :Chapter 18
01:33:34.650 : :Chapter 19
01:39:03.938 : :Chapter 20

Скриншоты

Download

Для того, чтобы

Тайна дома с часами / The House with a Clock in Its Walls (2018) UHD BDRemux 2160p | 4K | HDR | D

с нашего сайта, Вам необходимо Войти на сайт под своим логином! Если у Вас ещё нет логина, тогда Вам нужно сначала:




How to Download? · What is a torrent? · Ratings and Limitations

Display posts:    

Current time is: 19-Jul 03:48

All times are UTC + 4



You cannot post new topics in this forum
You cannot reply to topics in this forum
You cannot edit your posts in this forum
You cannot delete your posts in this forum
You cannot vote in polls in this forum
You cannot attach files in this forum
You cannot download files in this forum

Скачать через торрент фильмы 4K Ultra HD 2160p бесплатно, на первом свободном torrent трекере без надоедливой рекламы. Качаем без ограничений, рейтингов и прочих трудностей. Ищите любимый сериал, у нас вы найдёте множество сериалов, фильмов, игр, музыки. Скачать торрентом не составит труда даже не опытному пользователю. Все торрент файлы доступны к скачиванию любому пользователю бесплатно. Переходи на freetorrent и качай по полной без регистрации и ограничений. И не забудьте поделиться ссылкой на наш сайт - мы будем очень благодарны. Это даёт нам сил и заряда для жизни проекта.

Ежедневно в мир выходит столько новых картин, что уследить за всеми просто не представляется возможным. На нашем крупнейшем русскоязычном торрент трекере вы сможете без труда скачать фильмы 4к через торрент бесплатно новинки фильмов, не проходя утомительную регистрацию с подтверждением в смс, без назойливой рекламы и перехода по подозрительным ссылкам, все желаемые файлы находятся в открытом доступе и доступны к загрузке без начисления рейтинга. Скачать новинки выгодно не только в финансовом плане, любую загруженную киноленту можно посмотреть в удобное время и в высоком качестве. Самая лучшая подборка кино фильмов 60 fps | UHD 2160p | 4K утолит желание каждого киномана, каталог постоянно пополняется только лучшими релизами. У нас представлена огромная коллекция как недавно вышедших новинок, так и давно полюбившихся бестселлеров. Для того, чтобы получить файл, вам стоит лишь перейти на вкладку искомого материала и скачать нужный торрент и подождать, пока программа перенесет полнометражную картину на компьютер. Главная страница послужит путеводителем и афишей, где можно за несколько минут найти необходимое. Первый русский свободный торрент сделан с максимальным комфортом для пользователя, не нужно тратить время на изучение интерфейса. Желаем вам приятного просмотра! Постоянное обновление и пополнение - новинками популярных игр, новый и безопасный софт, мультимедиа кпк Свободный торрент трекер.