Олег Винник - Концерт Ты в курсе (2018) HDTVRip-HEVC 1080p скачать торрент

Вы посетили страницу нашего torrent трекера и теперь имеете возможность скачать бесплатно через торрент Олег Винник - Концерт Ты в курсе (2018) HDTVRip-HEVC 1080p в хорошем качестве. Только лучшие релизы, на свободном torrent трекере.

Все раздачи мультитрекерные, даже при нуле сидов, можно качать на максимальной скорости. Скорость скачивания без ограничений !!!

DL-List and Torrent activity [Update пиров]
Size:  3.07 GB   |    Registered:  7 months 23 days   |    Completed:  12 times
Seeders:  1  [  0 KB/s  ]   Show peers in full details
 
   
 
 
 

timon ®

Gender:
Male
Longevity:
2 years 10 months
Posts:
1997


Исполнитель/Группа: Олег Винник
Жанр: POP
Год выпуска: 2018
Продолжительность: 01:42:46
Описание: Новое шоу Олега Винника «Ты в курсе». Это шоу стало итогом многомесячной работы артиста и его команды. Исполнитель поразит зрителей канала «Украина» ярким световым шоу и спецэффектами, для чего было установлено колоссальное количество оборудования, в частности, 120 тонн декораций и 800 световых приборов. Все самые яркие моменты большого киевского шоу Олега Винника зафиксировали 18 камер. В шоу-программе прозвучат абсолютные хиты музыканта «Нино», «Счастье», «Як жити без тебе», «Вовчиця», а также композиции из новых альбомов Винника. Кроме того, зрители услышат заглавный трек «Ты в курсе», на который артист снял яркий fashion-клип.
Музыка,слова и аранжировки Олега Винника
Формат: MKV
Качество: HDTVRip-HEVC 1080p
Видео кодек: H.265
Аудио кодек: AC-3
Видео: H.265, ~4 000 Kbps, 1920x1080 (16:9), 25fps
Аудио: AC-3, 44100Hz, 2ch, 256 kbps

Треклист

1.Як я міг би жити без тебе?
2.Все в этой жизни неспроста
3.Но разве можно тебя разлюбить?
4.Дай,дай,дай
5.Мати каже правду
6.Золота
7.На красивой поверхности
8.Параллели
9.Не ты
10.Здравствуй невеста!
11.Счастье
12.Передчуття
13.Бачу,бачу-Таисия Таюне
14.Лишь ты одна
15.Хочу на берег океана
16.Нино
17.Вовчиця
18.Люби и летай
19.Ты в курсе
20.Кто я?
21.Я не устану
22.Плен
23.Счастье(на бис)
24.Вовчиця(на бис)

MedaInfo

Vinnik_2018.mkv
Format : Matroska
Format version : Version 4 / Version 2
File size : 3.07 GiB
Duration : 1 h 42 min
Overall bit rate : 4 278 kb/s
Movie name : Vinnik_rutor.info
Released date : 2018
Encoded date : UTC 2018-12-26 08:48:32 / UTC 2018-12-25T12:40:11Z
Writing application : mkvmerge v24.0.0 ('Beyond The Pale') 64-bit
Writing library : libebml v1.3.6 + libmatroska v1.4.9 / Lavf57.7.2
GENRE : POP
Video
ID : 1
Format : HEVC
Format/Info : High Efficiency Video Coding
Format profile : [email protected]@Main
Codec ID : V_MPEGH/ISO/HEVC
Duration : 1 h 42 min
Bit rate : 3 937 kb/s
Width : 1 920 pixels
Height : 1 080 pixels
Display aspect ratio : 16:9
Frame rate mode : Constant
Frame rate : 25.000 FPS
Color space : YUV
Chroma subsampling : 4:2:0
Bit depth : 8 bits
Bits/(Pixel*Frame) : 0.076
Stream size : 2.83 GiB (92%)
Writing library : x265 2.6:[Linux][GCC 7.3.0][64 bit] 8bit+10bit+12bit
Encoding settings : cpuid=1105919 / frame-threads=2 / wpp / no-pmode / no-pme / no-psnr / no-ssim / log-level=2 / input-csp=1 / input-res=1920x1080 / interlace=0 / total-frames=0 / level-idc=0 / high-tier=1 / uhd-bd=0 / ref=2 / no-allow-non-conformance / no-repeat-headers / annexb / no-aud / no-hrd / info / hash=0 / no-temporal-layers / open-gop / min-keyint=25 / keyint=250 / bframes=4 / b-adapt=0 / b-pyramid / bframe-bias=0 / rc-lookahead=15 / lookahead-slices=6 / scenecut=40 / no-intra-refresh / ctu=64 / min-cu-size=8 / no-rect / no-amp / max-tu-size=32 / tu-inter-depth=1 / tu-intra-depth=1 / limit-tu=0 / rdoq-level=0 / dynamic-rd=0,00 / no-ssim-rd / signhide / no-tskip / nr-intra=0 / nr-inter=0 / no-constrained-intra / strong-intra-smoothing / max-merge=2 / limit-refs=3 / no-limit-modes / me=1 / subme=1 / merange=57 / temporal-mvp / weightp / no-weightb / no-analyze-src-pics / deblock=0:0 / sao / no-sao-non-deblock / rd=2 / early-skip / rskip / fast-intra / no-tskip-fast / no-cu-lossless / no-b-intra / no-splitrd-skip / rdpenalty=0 / psy-rd=2,00 / psy-rdoq=0,00 / no-rd-refine / analysis-reuse-mode=0 / no-lossless / cbqpoffs=0 / crqpoffs=0 / rc=abr / bitrate=4000 / qcomp=0,60 / qpstep=4 / stats-write=0 / stats-read=0 / ipratio=1,40 / pbratio=1,30 / aq-mode=1 / aq-strength=1,00 / cutree / zone-count=0 / no-strict-cbr / qg-size=32 / no-rc-grain / qpmax=69 / qpmin=0 / no-const-vbv / sar=1 / overscan=0 / videoformat=5 / range=0 / colorprim=1 / transfer=1 / colormatrix=1 / chromaloc=0 / display-window=0 / max-cll=0,0 / min-luma=0 / max-luma=255 / log2-max-poc-lsb=8 / vui-timing-info / vui-hrd-info / slices=1 / no-opt-qp-pps / no-opt-ref-list-length-pps / no-multi-pass-opt-rps / scenecut-bias=0,05 / no-opt-cu-delta-qp / no-aq-motion / no-hdr / no-hdr-opt / no-dhdr10-opt / analysis-reuse-level=5 / scale-factor=0 / refine-intra=0 / refine-inter=0 / refine-mv=0 / no-limit-sao / ctu-info=0 / no-lowpass-dct / refine-mv-type=0 / copy-pic=1
Default : Yes
Forced : No
Color range : Limited
Color primaries : BT.709
Transfer characteristics : BT.709
Matrix coefficients : BT.709
Statistics Tags Issue : mkvmerge v24.0.0 ('Beyond The Pale') 64-bit 2018-12-26 08:48:32 / mkvmerge v24.0.0 ('Beyond The Pale') 64-bit 2018-12-26 08:48:32 / UTC 2018-12-25T12:40:11Z
FromStats_BitRate : 4020428
FromStats_Duration : 01:42:46.040000000
FromStats_FrameCount : 154149
FromStats_StreamSize : 3098765387
Audio
ID : 2
Format : AC-3
Format/Info : Audio Coding 3
Codec ID : A_AC3
Duration : 1 h 42 min
Bit rate mode : Constant
Bit rate : 256 kb/s
Channel(s) : 2 channels
Channel positions : Front: L R
Sampling rate : 44.1 kHz
Frame rate : 28.711 FPS (1536 SPF)
Bit depth : 16 bits
Compression mode : Lossy
Stream size : 188 MiB (6%)
Service kind : Complete Main
Default : Yes
Forced : No
Statistics Tags Issue : mkvmerge v24.0.0 ('Beyond The Pale') 64-bit 2018-12-26 08:48:32 / mkvmerge v24.0.0 ('Beyond The Pale') 64-bit 2018-12-26 08:48:32 / UTC 2018-12-25T12:40:11Z
FromStats_BitRate : 256000
FromStats_Duration : 01:42:46.082000000
FromStats_FrameCount : 177034
FromStats_StreamSize : 197314630

Скриншоты


[fromtorrents.com].t53906.torrent 
Torrent: Registered [ 2018-12-26 14:50 ] · E3D579D6019F29465CA6B43DEEFE06F672E650A3

Download .torrent

62 KB

Status: checked
Completed: 12 times
Size: 3.07 GB
Rate: 
(Vote: 0)
Have thanked: 0  Thanks

Скачать через торрент Олег Винник - Концерт Ты в курсе (2018) HDTVRip-HEVC 1080p в хорошем качестве бесплатно


terms.php
Display posts:    

Current time is: 18-Aug 19:45

All times are UTC + 4



You cannot post new topics in this forum
You cannot reply to topics in this forum
You cannot edit your posts in this forum
You cannot delete your posts in this forum
You cannot vote in polls in this forum
You cannot attach files in this forum
You can download files in this forum

Скачать через торрент фильмы 4K Ultra HD 2160p бесплатно, на первом свободном torrent трекере без надоедливой рекламы. Качаем без ограничений, рейтингов и прочих трудностей. Ищите любимый сериал, у нас вы найдёте множество сериалов, фильмов, игр, музыки. Скачать торрентом не составит труда даже не опытному пользователю. Все торрент файлы доступны к скачиванию любому пользователю бесплатно. Переходи на freetorrent и качай по полной без регистрации и ограничений. И не забудьте поделиться ссылкой на наш сайт - мы будем очень благодарны. Это даёт нам сил и заряда для жизни проекта.

Ежедневно в мир выходит столько новых картин, что уследить за всеми просто не представляется возможным. На нашем крупнейшем русскоязычном торрент трекере вы сможете без труда скачать фильмы 4к через торрент бесплатно новинки фильмов, не проходя утомительную регистрацию с подтверждением в смс, без назойливой рекламы и перехода по подозрительным ссылкам, все желаемые файлы находятся в открытом доступе и доступны к загрузке без начисления рейтинга. Скачать новинки выгодно не только в финансовом плане, любую загруженную киноленту можно посмотреть в удобное время и в высоком качестве. Самая лучшая подборка кино фильмов 60 fps | UHD 2160p | 4K утолит желание каждого киномана, каталог постоянно пополняется только лучшими релизами. У нас представлена огромная коллекция как недавно вышедших новинок, так и давно полюбившихся бестселлеров. Для того, чтобы получить файл, вам стоит лишь перейти на вкладку искомого материала и скачать нужный торрент и подождать, пока программа перенесет полнометражную картину на компьютер. Главная страница послужит путеводителем и афишей, где можно за несколько минут найти необходимое. Первый русский свободный торрент сделан с максимальным комфортом для пользователя, не нужно тратить время на изучение интерфейса. Желаем вам приятного просмотра! Постоянное обновление и пополнение - новинками популярных игр, новый и безопасный софт, мультимедиа кпк Свободный торрент трекер.